<?xml version="1.0" standalone="no"?>
<!DOCTYPE svg PUBLIC "-//W3C//DTD SVG 1.1//EN" "http://www.w3.org/Graphics/SVG/1.1/DTD/svg11.dtd" >
<svg>
<metadata>
Created by FontForge 20110222 at Thu Jul 31 04:44:10 2014
 By Orthosie Webhosting
Copyright (C) 2001, 2008 Hoefler &#38; Frere-Jones. http://www.typography.com
</metadata>
<defs>
<font id="GothamMediumItalic" horiz-adv-x="600" >
  <font-face 
    font-family="GothamMediumItalic"
    font-weight="350"
    font-style="italic"
    font-stretch="normal"
    units-per-em="1000"
    panose-1="0 0 0 0 0 0 0 0 0 0"
    ascent="800"
    descent="-200"
    x-height="528"
    cap-height="700"
    bbox="-319 -275 1221 1008"
    underline-thickness="50"
    underline-position="-50"
    slope="-15"
    unicode-range="U+0020-FB04"
  />
<missing-glyph horiz-adv-x="500" 
d="M0 -200v1000h500v-1000h-500zM50 -76l172 376l-172 376v-752zM71 -150h358l-179 390zM250 360l179 390h-358zM450 -76v752l-172 -376z" />
    <glyph glyph-name="f_f" unicode="ff" horiz-adv-x="793" 
d="M33 0l114 424h-67l28 104h66l10 37q18 75 61 118q52 52 141 52q61 0 104 -18l-27 -101q-38 16 -74 16q-67 0 -87 -74l-8 -30h146l-28 -104h-144l-114 -424h-121zM429 0l114 424h-67l28 104h66l10 37q18 75 61 118q52 52 141 52q61 0 104 -18l-27 -101q-38 16 -74 16
q-67 0 -87 -74l-8 -30h146l-28 -104h-144l-114 -424h-121z" />
    <glyph glyph-name="fi" unicode="fi" horiz-adv-x="683" 
d="M33 0l114 424h-67l28 104h66l10 37q18 75 61 118q52 52 141 52q61 0 104 -18l-27 -101q-38 16 -74 16q-67 0 -87 -74l-8 -30h146l-28 -104h-144l-114 -424h-121zM408 0l142 528h121l-142 -528h-121zM567 609l31 115h131l-32 -115h-130z" />
    <glyph glyph-name="fl" unicode="fl" horiz-adv-x="683" 
d="M33 0l114 424h-67l28 104h66l10 37q18 75 61 118q52 52 141 52q61 0 104 -18l-27 -101q-38 16 -74 16q-67 0 -87 -74l-8 -30h146l-28 -104h-144l-114 -424h-121zM408 0l196 730h121l-196 -730h-121z" />
    <glyph glyph-name="f_f_i" unicode="ffi" horiz-adv-x="1079" 
d="M33 0l114 424h-67l28 104h66l10 37q18 75 61 118q52 52 141 52q61 0 104 -18l-27 -101q-38 16 -74 16q-67 0 -87 -74l-8 -30h146l-28 -104h-144l-114 -424h-121zM429 0l114 424h-67l28 104h66l10 37q18 75 61 118q52 52 141 52q61 0 104 -18l-27 -101q-38 16 -74 16
q-67 0 -87 -74l-8 -30h146l-28 -104h-144l-114 -424h-121zM804 0l142 528h121l-142 -528h-121zM963 609l31 115h131l-32 -115h-130z" />
    <glyph glyph-name="f_f_l" unicode="ffl" horiz-adv-x="1079" 
d="M33 0l114 424h-67l28 104h66l10 37q18 75 61 118q52 52 141 52q61 0 104 -18l-27 -101q-38 16 -74 16q-67 0 -87 -74l-8 -30h146l-28 -104h-144l-114 -424h-121zM429 0l114 424h-67l28 104h66l10 37q18 75 61 118q52 52 141 52q61 0 104 -18l-27 -101q-38 16 -74 16
q-67 0 -87 -74l-8 -30h146l-28 -104h-144l-114 -424h-121zM804 0l196 730h121l-196 -730h-121z" />
    <glyph glyph-name=".notdef" horiz-adv-x="500" 
d="M0 -200v1000h500v-1000h-500zM50 -76l172 376l-172 376v-752zM71 -150h358l-179 390zM250 360l179 390h-358zM450 -76v752l-172 -376z" />
    <glyph glyph-name=".null" horiz-adv-x="0" 
 />
    <glyph glyph-name="nonmarkingreturn" horiz-adv-x="333" 
 />
    <glyph glyph-name="space" unicode=" " horiz-adv-x="300" 
 />
    <glyph glyph-name="exclam" unicode="!" horiz-adv-x="303" 
d="M106 222l81 443l10 35h142l-10 -35l-156 -443h-67zM14 0l37 138h133l-37 -138h-133z" />
    <glyph glyph-name="quotedbl" unicode="&#x22;" horiz-adv-x="493" 
d="M100 401l86 299h138l-1 -5l-159 -294h-64zM323 401l87 299h138l-2 -5l-159 -294h-64z" />
    <glyph glyph-name="numbersign" unicode="#" horiz-adv-x="687" 
d="M55 0l56 161h-93l28 104h102l60 174h-105l28 104h113l55 157h107l-55 -157h164l55 157h107l-55 -157h93l-27 -104h-103l-60 -174h105l-27 -104h-115l-55 -161h-107l56 161h-164l-56 -161h-107zM255 265h163l61 174h-164z" />
    <glyph glyph-name="dollar" unicode="$" horiz-adv-x="631" 
d="M422 758h87l-20 -70q93 -23 159 -90l-83 -82q-54 49 -111 67l-54 -187q84 -31 125 -72t41 -111q0 -94 -78 -153.5t-196 -59.5h-6l-29 -98h-87l31 106q-133 25 -205 119l90 76q64 -71 150 -90l57 195q-86 32 -128 71.5t-42 110.5q0 90 75.5 150t186.5 60q3 0 9.5 -0.5
t9.5 -0.5zM249 503q0 -26 17 -43t62 -36l49 170q-61 0 -94.5 -26t-33.5 -65zM439 201q0 26 -17 44t-57 36l-51 -175q58 2 91.5 28t33.5 67z" />
    <glyph glyph-name="percent" unicode="%" horiz-adv-x="862" 
d="M62 0l337 349l338 351h109l-337 -349l-338 -351h-109zM236 346q-67 0 -108 42t-41 109q0 92 64 156q55 55 129 55q66 0 107.5 -42.5t41.5 -108.5q0 -93 -65 -156q-55 -55 -128 -55zM241 420q33 0 62 27q42 44 42 106q0 38 -18.5 59.5t-52.5 21.5q-33 0 -62 -27
q-42 -44 -42 -106q0 -38 19 -59.5t52 -21.5zM628 -8q-66 0 -107.5 42.5t-41.5 108.5q0 93 65 156q55 55 128 55q67 0 108 -42t41 -109q0 -92 -64 -156q-55 -55 -129 -55zM633 66q35 0 62 27q43 43 43 106q0 38 -19 59.5t-52 21.5q-35 0 -62 -27q-43 -43 -43 -106
q0 -38 19 -59.5t52 -21.5z" />
    <glyph glyph-name="ampersand" unicode="&#x26;" horiz-adv-x="694" 
d="M585 352l77 -52q-58 -90 -115 -152l76 -104l-91 -58l-64 89q-107 -85 -227 -85q-95 0 -155.5 49.5t-60.5 134.5q0 73 52.5 132.5t159.5 91.5q-39 68 -39 125q0 78 59.5 133.5t151.5 55.5q82 0 133 -45t51 -116q0 -131 -200 -194l98 -133q51 56 94 128zM255 92
q77 0 156 60l-124 174q-73 -24 -108.5 -62t-35.5 -82q0 -41 29.5 -65.5t82.5 -24.5zM307 522q0 -43 34 -94q79 25 110 52.5t31 63.5q0 29 -21 50t-58 21q-41 0 -68.5 -27.5t-27.5 -65.5z" />
    <glyph glyph-name="quotesingle" unicode="'" horiz-adv-x="269" 
d="M100 401l86 299h138l-1 -5l-159 -294h-64z" />
    <glyph glyph-name="parenleft" unicode="(" horiz-adv-x="441" 
d="M251 -142q-181 149 -181 354q0 196 148 346q98 97 248 157l44 -90q-115 -52 -192 -129q-124 -124 -124 -280q0 -145 132 -282z" />
    <glyph glyph-name="parenright" unicode=")" horiz-adv-x="441" 
d="M201 717q181 -149 181 -354q0 -196 -148 -346q-98 -97 -248 -157l-44 90q115 52 192 129q124 124 124 280q0 145 -132 282z" />
    <glyph glyph-name="asterisk" unicode="*" horiz-adv-x="430" 
d="M276 379l-68 17l45 115l-116 -45l-19 69l124 18l-97 78l50 50l77 -97l19 122l67 -18l-45 -115l116 45l19 -68l-124 -19l98 -77l-51 -51l-77 97z" />
    <glyph glyph-name="plus" unicode="+" horiz-adv-x="634" 
d="M218 106l51 191h-192l30 111h191l51 190h115l-51 -190h192l-30 -111h-192l-51 -191h-114z" />
    <glyph glyph-name="comma" unicode="," horiz-adv-x="293" 
d="M-45 -145l-9 51q101 14 115 94h-52l37 138h133l-31 -117q-22 -84 -68 -122t-125 -44z" />
    <glyph glyph-name="hyphen" unicode="-" horiz-adv-x="411" 
d="M53 247l32 119h296l-32 -119h-296z" />
    <glyph glyph-name="period" unicode="." horiz-adv-x="293" 
d="M9 0l37 138h133l-37 -138h-133z" />
    <glyph glyph-name="slash" unicode="/" horiz-adv-x="521" 
d="M-131 -128l692 926h116l-692 -926h-116z" />
    <glyph glyph-name="zero" unicode="0" horiz-adv-x="724" 
d="M439 712q120 0 190.5 -77.5t70.5 -204.5q0 -95 -36 -186.5t-100 -155.5q-100 -100 -234 -100q-120 0 -191 77.5t-71 204.5q0 95 36 186.5t100 155.5q100 100 235 100zM339 99q71 0 129 60q49 48 77 122.5t28 148.5q0 79 -38 125t-106 46q-71 0 -129 -60
q-48 -48 -76.5 -122.5t-28.5 -148.5q0 -79 38 -125t106 -46z" />
    <glyph glyph-name="one" unicode="1" horiz-adv-x="404" 
d="M94 0l154 573l-133 -34l-2 106l207 60h85l-189 -705h-122z" />
    <glyph glyph-name="two" unicode="2" horiz-adv-x="606" 
d="M-27 0l27 100l371 268q56 41 82 74.5t26 70.5q0 40 -28.5 63t-78.5 23q-84 0 -177 -91l-76 79q111 123 259 123q102 0 165 -51.5t63 -133.5q0 -63 -36.5 -115t-122.5 -114l-258 -188h327l-29 -108h-514z" />
    <glyph glyph-name="three" unicode="3" horiz-adv-x="605" 
d="M244 -12q-179 0 -253 134l93 66q59 -89 166 -89q67 0 112 35.5t45 85.5q0 48 -41 73t-114 25h-38l-8 75l238 200h-298l29 107h466l-25 -92l-250 -204q76 -13 121 -56t45 -117q0 -92 -66 -158q-85 -85 -222 -85z" />
    <glyph glyph-name="four" unicode="4" horiz-adv-x="655" 
d="M331 0l42 157h-340l-13 92l498 456h119l-120 -447h100l-27 -101h-100l-42 -157h-117zM177 258h223l75 279z" />
    <glyph glyph-name="five" unicode="5" horiz-adv-x="607" 
d="M251 -11q-78 0 -147 35.5t-106 89.5l89 72q71 -86 174 -86q73 0 120 40t47 95q0 48 -37.5 78t-104.5 30q-54 0 -114 -29l-64 52l109 334h411l-30 -109h-300l-53 -161q44 16 90 16q99 0 159.5 -54t60.5 -145q0 -99 -73 -170q-88 -88 -231 -88z" />
    <glyph glyph-name="six" unicode="6" horiz-adv-x="642" 
d="M314 -12q-113 0 -177 64q-71 71 -71 196q0 105 36.5 200.5t101.5 160.5q105 103 245 103q128 0 213 -85l-74 -87q-64 61 -149 61q-87 0 -149 -63q-69 -69 -87 -166q27 32 75 54.5t103 22.5q94 0 155 -54.5t61 -143.5q0 -103 -77 -178q-83 -85 -206 -85zM315 93
q70 0 116 46q41 41 41 98q0 48 -33.5 79.5t-91.5 31.5q-73 0 -121 -46q-40 -42 -40 -94q0 -49 32 -79q36 -36 97 -36z" />
    <glyph glyph-name="seven" unicode="7" 
d="M30 0l446 592h-346l29 108h492l-25 -93l-451 -607h-145z" />
    <glyph glyph-name="eight" unicode="8" horiz-adv-x="656" 
d="M299 -10q-112 0 -188.5 55t-76.5 139q0 77 52 126t138 67q-42 20 -67 57t-25 82q0 77 71 135.5t188 58.5q107 0 175 -52t68 -133q0 -67 -44 -114t-117 -63q50 -19 81 -58.5t31 -93.5q0 -85 -79.5 -145.5t-206.5 -60.5zM305 91q69 0 113.5 31t45.5 80q0 44 -41.5 74
t-108.5 30q-70 0 -114 -32.5t-44 -79.5q-1 -45 40.5 -74t108.5 -29zM377 405q62 0 101 31t39 75q1 42 -34.5 69.5t-96.5 27.5q-59 0 -98 -30t-40 -75q-1 -42 35 -70t94 -28z" />
    <glyph glyph-name="nine" unicode="9" horiz-adv-x="642" 
d="M243 -12q-129 0 -224 92l74 88q74 -69 157 -69q86 0 149 64q64 63 85 158q-28 -32 -75 -54.5t-103 -22.5q-95 0 -155.5 54.5t-60.5 146.5q0 106 77 183q84 84 207 84q114 0 177 -63q71 -71 71 -207q0 -100 -37 -192.5t-103 -158.5q-103 -103 -239 -103zM343 345
q71 0 117 46q42 42 42 100q0 48 -32 80q-36 36 -97 36q-70 0 -115 -45q-43 -43 -43 -103q0 -51 34 -82.5t94 -31.5z" />
    <glyph glyph-name="colon" unicode=":" horiz-adv-x="296" 
d="M11 0l37 138h133l-37 -138h-133zM116 391l37 137h133l-37 -137h-133z" />
    <glyph glyph-name="semicolon" unicode=";" horiz-adv-x="296" 
d="M-44 -145l-9 51q101 14 115 94h-51l37 138h133l-31 -117q-23 -84 -69 -122t-125 -44zM116 391l37 137h133l-37 -137h-133z" />
    <glyph glyph-name="less" unicode="&#x3c;" horiz-adv-x="634" 
d="M494 77l-419 221l29 108l538 221l-34 -121l-399 -159l314 -160z" />
    <glyph glyph-name="equal" unicode="=" horiz-adv-x="634" 
d="M59 171l30 112h468l-30 -112h-468zM126 421l30 112h468l-30 -112h-468z" />
    <glyph glyph-name="greater" unicode="&#x3e;" horiz-adv-x="634" 
d="M37 77l33 121l400 159l-315 160l30 110l419 -221l-29 -108z" />
    <glyph glyph-name="question" unicode="?" horiz-adv-x="541" 
d="M182 222l23 162l6 5q102 7 158.5 39.5t56.5 86.5q0 39 -27 60.5t-76 21.5q-86 0 -159 -68l-66 81q97 99 241 99q99 0 157.5 -52t58.5 -128q0 -90 -68 -146.5t-191 -74.5l-33 -86h-81zM99 0l37 138h133l-37 -138h-133z" />
    <glyph glyph-name="at" unicode="@" horiz-adv-x="980" 
d="M476 -157q-186 0 -302 108.5t-116 280.5q0 95 38.5 184t103.5 154t156 104.5t191 39.5q182 0 291 -100.5t109 -246.5q0 -143 -68 -221.5t-159 -78.5q-51 0 -86 22.5t-48 61.5q-76 -85 -168 -85q-68 0 -114 45t-46 123q0 114 76.5 193.5t172.5 79.5t138 -81l22 72l92 -25
l-75 -238q-11 -38 -11 -56q0 -32 19 -50t51 -18q60 0 112 69.5t52 186.5q0 131 -98.5 220.5t-261.5 89.5q-123 0 -227 -61.5t-163 -164t-59 -219.5q0 -156 105 -254t273 -98q104 0 205 45l16 -33q-105 -49 -221 -49zM456 151q60 0 109.5 52.5t49.5 120.5q0 44 -27.5 70.5
t-72.5 26.5q-59 0 -105 -51.5t-46 -122.5q0 -45 25 -70.5t67 -25.5z" />
    <glyph glyph-name="A" unicode="A" horiz-adv-x="763" 
d="M-50 0l497 705h118l119 -705h-126l-27 169h-331l-116 -169h-134zM275 278h241l-45 283z" />
    <glyph glyph-name="B" unicode="B" horiz-adv-x="717" 
d="M19 0l188 700h268q111 0 170 -46.5t59 -121.5q0 -70 -44 -116t-116 -62q109 -42 109 -143q0 -95 -79.5 -153t-218.5 -58h-336zM169 109h203q73 0 115.5 29t42.5 80q0 39 -33 61t-90 22h-187zM249 405h173q74 0 116 28t42 79q0 79 -116 79h-166z" />
    <glyph glyph-name="C" unicode="C" horiz-adv-x="730" 
d="M391 -12q-138 0 -227 81t-89 217q0 84 33.5 162.5t93.5 138.5q125 125 296 125q187 0 273 -150l-102 -69q-34 52 -77 79t-108 27q-103 0 -187 -82q-94 -94 -94 -226q0 -86 53 -137.5t138 -51.5q55 0 97.5 19.5t87.5 59.5l81 -82q-114 -111 -269 -111z" />
    <glyph glyph-name="D" unicode="D" horiz-adv-x="775" 
d="M19 0l188 700h190q183 0 274 -91q76 -76 76 -204q0 -161 -113 -274q-131 -131 -364 -131h-251zM570 529q-59 59 -182 59h-87l-129 -476h113q161 0 256 95q78 78 78 193q0 80 -49 129z" />
    <glyph glyph-name="E" unicode="E" horiz-adv-x="660" 
d="M19 0l188 700h514l-30 -110h-391l-49 -183h347l-30 -109h-346l-51 -188h397l-30 -110h-519z" />
    <glyph glyph-name="F" unicode="F" horiz-adv-x="661" 
d="M19 0l188 700h521l-30 -112h-398l-51 -191h353l-30 -112h-353l-76 -285h-124z" />
    <glyph glyph-name="G" unicode="G" horiz-adv-x="782" 
d="M395 -12q-132 0 -226.5 79.5t-94.5 221.5q0 82 33.5 159t93.5 137q127 127 307 127q189 0 277 -124l-92 -78q-74 89 -194 89q-119 0 -205 -86q-91 -91 -91 -220q0 -90 56 -141t144 -51q83 0 148 36l43 147h-179l29 107h298l-95 -335q-115 -68 -252 -68z" />
    <glyph glyph-name="H" unicode="H" horiz-adv-x="756" 
d="M19 0l188 700h124l-78 -291h329l78 291h123l-188 -700h-123l79 295h-329l-79 -295h-124z" />
    <glyph glyph-name="I" unicode="I" horiz-adv-x="317" 
d="M26 0l188 700h124l-188 -700h-124z" />
    <glyph glyph-name="J" unicode="J" horiz-adv-x="567" 
d="M190 -10q-72 0 -129 34.5t-90 95.5l90 72q51 -88 134 -88q61 0 104 43q38 36 66 146l109 407h127l-117 -435q-21 -77 -42.5 -122t-56.5 -81q-73 -72 -195 -72z" />
    <glyph glyph-name="K" unicode="K" horiz-adv-x="723" 
d="M19 0l188 700h124l-95 -353l410 353h169l-356 -299l180 -401h-137l-141 328l-169 -142l-49 -186h-124z" />
    <glyph glyph-name="L" unicode="L" horiz-adv-x="618" 
d="M19 0l188 700h124l-158 -588h368l-31 -112h-491z" />
    <glyph glyph-name="M" unicode="M" horiz-adv-x="868" 
d="M19 0l188 700h125l122 -331l300 331h141l-188 -700h-125l135 502l-308 -330h-4l-129 328l-134 -500h-123z" />
    <glyph glyph-name="N" unicode="N" horiz-adv-x="786" 
d="M19 0l188 700h114l237 -495l134 495h121l-188 -700h-103l-245 509l-136 -509h-122z" />
    <glyph glyph-name="O" unicode="O" horiz-adv-x="836" 
d="M491 712q140 0 227.5 -87.5t87.5 -219.5q0 -82 -33 -159.5t-92 -136.5q-119 -121 -291 -121q-139 0 -226.5 87.5t-87.5 219.5q0 82 33 160t92 136q119 121 290 121zM403 101q105 0 184 79q43 43 67 101t24 117q0 88 -53.5 144.5t-145.5 56.5q-105 0 -184 -79
q-43 -43 -67 -101t-24 -117q0 -89 53.5 -145t145.5 -56z" />
    <glyph glyph-name="P" unicode="P" horiz-adv-x="674" 
d="M19 0l188 700h221q144 0 212 -69q52 -52 52 -138q0 -102 -68 -172q-96 -94 -274 -94h-146l-61 -227h-124zM537 552q-36 36 -113 36h-124l-67 -252h124q114 0 170 54q37 39 37 93q0 42 -27 69z" />
    <glyph glyph-name="Q" unicode="Q" horiz-adv-x="836" 
d="M491 712q140 0 227.5 -87.5t87.5 -219.5q0 -82 -33 -159.5t-92 -136.5l-2 -2l62 -77l-101 -68l-52 76q-91 -50 -198 -50q-139 0 -226.5 87.5t-87.5 219.5q0 82 33 160t92 136q119 121 290 121zM403 101q63 0 118 30l-98 126l101 70l84 -124q70 88 70 195
q0 88 -53.5 144.5t-145.5 56.5q-105 0 -184 -79q-43 -43 -67 -101t-24 -117q0 -89 53.5 -145t145.5 -56z" />
    <glyph glyph-name="R" unicode="R" horiz-adv-x="723" 
d="M474 0l-120 244h-146l-65 -244h-124l188 700h254q145 0 212 -68q51 -51 51 -132q0 -98 -64 -160q-60 -60 -175 -84l130 -256h-141zM238 353h158q114 0 165 53q35 35 35 84q0 37 -25 64q-36 34 -117 34h-153z" />
    <glyph glyph-name="S" unicode="S" horiz-adv-x="637" 
d="M296 -10q-198 0 -297 131l93 77q87 -99 211 -99q59 0 97 27t38 70q0 32 -27.5 54.5t-101.5 51.5q-90 36 -135 78t-45 110q0 84 58 142q78 78 211 78q162 0 257 -105l-86 -84q-82 80 -180 80q-59 0 -94.5 -27.5t-35.5 -64.5q0 -33 28.5 -54.5t107.5 -52.5
q88 -34 131 -76.5t43 -111.5q0 -84 -61 -145q-79 -79 -212 -79z" />
    <glyph glyph-name="T" unicode="T" horiz-adv-x="619" 
d="M174 0l158 586h-223l31 114h568l-31 -114h-222l-158 -586h-123z" />
    <glyph glyph-name="U" unicode="U" horiz-adv-x="762" 
d="M345 -11q-122 0 -190.5 62t-68.5 169q0 56 16 111l98 369h124l-104 -386q-10 -38 -10 -77q0 -60 38 -97t109 -37q79 0 131 52q53 53 77 147l107 398h123l-112 -417q-36 -134 -109 -207q-87 -87 -229 -87z" />
    <glyph glyph-name="V" unicode="V" horiz-adv-x="721" 
d="M229 -5l-99 705h132l63 -535l351 535h139l-477 -705h-109z" />
    <glyph glyph-name="W" unicode="W" horiz-adv-x="1098" 
d="M191 -5l-55 705h128l29 -519l309 521h104l34 -521l306 519h140l-433 -705h-113l-36 497l-302 -497h-111z" />
    <glyph glyph-name="X" unicode="X" horiz-adv-x="698" 
d="M-43 0l347 363l-161 337h138l112 -250l230 250h158l-336 -352l166 -348h-138l-118 261l-240 -261h-158z" />
    <glyph glyph-name="Y" unicode="Y" horiz-adv-x="655" 
d="M189 0l74 278l-156 422h137l105 -316l277 316h152l-395 -435l-71 -265h-123z" />
    <glyph glyph-name="Z" unicode="Z" horiz-adv-x="681" 
d="M-19 0l24 91l535 500h-387l30 109h557l-25 -91l-535 -500h404l-29 -109h-574z" />
    <glyph glyph-name="bracketleft" unicode="[" horiz-adv-x="455" 
d="M-2 -130l223 830h308l-26 -95h-192l-172 -640h192l-25 -95h-308z" />
    <glyph glyph-name="backslash" unicode="\" horiz-adv-x="521" 
d="M339 -128l-212 926h101l212 -926h-101z" />
    <glyph glyph-name="bracketright" unicode="]" horiz-adv-x="455" 
d="M467 700l-223 -830h-308l26 95h192l172 640h-192l25 95h308z" />
    <glyph glyph-name="asciicircum" unicode="^" horiz-adv-x="500" 
d="M98 493l207 208h86l95 -208h-84l-67 132l-137 -132h-100z" />
    <glyph glyph-name="underscore" unicode="_" 
d="M-115 -160l26 94h604l-25 -94h-605z" />
    <glyph glyph-name="grave" unicode="`" horiz-adv-x="500" 
d="M353 595l-91 115l113 49l61 -164h-83z" />
    <glyph glyph-name="a" unicode="a" horiz-adv-x="583" 
d="M171 -11q-69 0 -114 40t-45 104q0 75 50 127q66 64 181 64q77 0 164 -26l3 9q6 26 6 44q0 80 -117 80q-72 0 -144 -29l-20 98q90 35 188 35q103 0 157 -42.5t54 -120.5q0 -29 -11 -77l-79 -295h-117l18 70q-73 -81 -174 -81zM219 76q55 0 101.5 36.5t61.5 89.5l7 24
q-62 20 -128 20q-65 0 -102 -35q-26 -26 -26 -64q0 -32 23.5 -51.5t62.5 -19.5z" />
    <glyph glyph-name="b" unicode="b" horiz-adv-x="668" 
d="M330 -11q-122 0 -179 105l-25 -94h-121l195 730h121l-73 -272q81 81 169 81q90 0 148 -61.5t58 -164.5q0 -142 -96 -238q-86 -86 -197 -86zM315 93q69 0 118 51q64 62 64 161q0 60 -34 95t-91 35q-70 0 -125 -55q-65 -65 -65 -154q0 -58 37.5 -95.5t95.5 -37.5z" />
    <glyph glyph-name="c" unicode="c" horiz-adv-x="561" 
d="M286 -12q-104 0 -173 64.5t-69 170.5q0 130 93 223t219 93q146 0 214 -120l-94 -64q-24 38 -53.5 58.5t-76.5 20.5q-64 0 -116 -52q-65 -67 -65 -158q0 -60 36 -96t89 -36q68 0 135 59l64 -79q-92 -84 -203 -84z" />
    <glyph glyph-name="d" unicode="d" horiz-adv-x="668" 
d="M400 0l19 70q-79 -81 -169 -81t-148 61.5t-58 164.5q0 142 96 238q86 86 198 86q121 0 178 -105l79 296h121l-195 -730h-121zM296 93q71 0 124 55q66 66 66 154q0 58 -37.5 95.5t-96.5 37.5q-67 0 -118 -51q-64 -64 -64 -161q0 -60 34.5 -95t91.5 -35z" />
    <glyph glyph-name="e" unicode="e" 
d="M543 222h-384q0 -62 35.5 -98.5t101.5 -36.5q68 0 135 51l58 -77q-87 -73 -205 -73q-110 0 -175 62.5t-65 168.5q0 63 25.5 123.5t71.5 106.5q90 90 214 90q99 0 155 -58t56 -147q0 -57 -23 -112zM224 388q-35 -35 -52 -86h274q5 15 5 37q0 44 -26.5 72.5t-78.5 28.5
q-70 0 -122 -52z" />
    <glyph glyph-name="f" unicode="f" horiz-adv-x="396" 
d="M33 0l114 424h-67l28 104h66l10 37q18 75 61 118q52 52 141 52q61 0 104 -18l-27 -101q-38 16 -74 16q-67 0 -87 -74l-8 -30h146l-28 -104h-144l-114 -424h-121z" />
    <glyph glyph-name="g" unicode="g" horiz-adv-x="666" 
d="M246 -162q-163 0 -271 81l67 84q89 -67 197 -67q82 0 129 47q35 35 55 107l9 32q-86 -80 -181 -80q-83 0 -143 51.5t-60 139.5q0 128 92 220q86 86 200 86q68 0 108 -29t66 -77l25 95h121l-116 -436q-19 -71 -39 -110.5t-51 -69.5q-74 -74 -208 -74zM296 141q75 0 130 55
q54 54 54 122q0 51 -35 84.5t-93 33.5q-69 0 -123 -52q-55 -55 -55 -130q0 -54 34.5 -83.5t87.5 -29.5z" />
    <glyph glyph-name="h" unicode="h" horiz-adv-x="618" 
d="M5 0l195 730h121l-72 -269q80 78 161 78q73 0 116.5 -42.5t43.5 -115.5q0 -31 -16 -93l-76 -288h-121l78 293q8 27 8 53q0 40 -24 61.5t-68 21.5q-50 0 -89.5 -36.5t-55.5 -95.5l-79 -297h-122z" />
    <glyph glyph-name="i" unicode="i" horiz-adv-x="286" 
d="M12 0l142 528h121l-142 -528h-121zM171 609l31 115h131l-32 -115h-130z" />
    <glyph glyph-name="j" unicode="j" horiz-adv-x="285" 
d="M-48 -163q-42 0 -77 9l26 96q26 -6 40 -6q25 0 44.5 18.5t28.5 53.5l140 520h121l-144 -535q-41 -156 -179 -156zM171 609l31 115h130l-31 -115h-130z" />
    <glyph glyph-name="k" unicode="k" horiz-adv-x="582" 
d="M5 0l196 730h122l-115 -427l270 225h160l-266 -214l127 -314h-136l-94 235l-102 -82l-40 -153h-122z" />
    <glyph glyph-name="l" unicode="l" horiz-adv-x="286" 
d="M12 0l196 730h121l-196 -730h-121z" />
    <glyph glyph-name="m" unicode="m" horiz-adv-x="950" 
d="M5 0l141 528h121l-18 -67q78 78 155 78q56 0 93 -29t51 -77q79 106 198 106q71 0 114 -43t43 -115q0 -27 -17 -93l-77 -288h-121l79 293q7 30 7 53q0 40 -22.5 61.5t-63.5 21.5q-49 0 -87 -36.5t-53 -95.5l-80 -297h-121l79 293q7 30 7 53q0 40 -22.5 61.5t-63.5 21.5
q-49 0 -87 -36t-54 -96l-79 -297h-122z" />
    <glyph glyph-name="n" unicode="n" horiz-adv-x="617" 
d="M5 0l141 528h121l-18 -67q80 78 161 78q73 0 116.5 -42.5t43.5 -115.5q0 -31 -16 -93l-76 -288h-121l78 293q8 27 8 53q0 40 -24 61.5t-68 21.5q-50 0 -89.5 -36.5t-55.5 -95.5l-79 -297h-122z" />
    <glyph glyph-name="o" unicode="o" horiz-adv-x="646" 
d="M353 539q112 0 180 -68t68 -174q0 -126 -93 -217q-90 -92 -215 -92q-112 0 -180 67.5t-68 173.5q0 125 93 218q90 92 215 92zM300 93q68 0 117 51q30 29 47 70t17 80q0 66 -37 103t-98 37q-64 0 -117 -51q-30 -29 -47 -70t-17 -80q0 -66 37 -103t98 -37z" />
    <glyph glyph-name="p" unicode="p" horiz-adv-x="668" 
d="M330 -11q-122 0 -179 105l-67 -254h-122l184 688h121l-19 -70q81 81 169 81q90 0 148 -61.5t58 -164.5q0 -142 -96 -238q-86 -86 -197 -86zM315 93q69 0 118 51q64 62 64 161q0 60 -34 95t-91 35q-70 0 -125 -55q-65 -65 -65 -154q0 -58 37.5 -95.5t95.5 -37.5z" />
    <glyph glyph-name="q" unicode="q" horiz-adv-x="668" 
d="M250 -11q-90 0 -148 61.5t-58 164.5q0 142 96 238q86 86 198 86q121 0 178 -105l25 94h121l-183 -688h-121l61 230q-79 -81 -169 -81zM296 93q71 0 124 55q66 66 66 154q0 58 -37.5 95.5t-96.5 37.5q-67 0 -118 -51q-64 -64 -64 -161q0 -60 34.5 -95t91.5 -35z" />
    <glyph glyph-name="r" unicode="r" horiz-adv-x="412" 
d="M5 0l141 528h121l-31 -119q95 137 221 129l-34 -128h-7q-83 0 -146 -54t-91 -160l-52 -196h-122z" />
    <glyph glyph-name="s" unicode="s" horiz-adv-x="499" 
d="M217 -12q-63 0 -126 24.5t-108 70.5l73 74q74 -74 171 -74q36 0 60 17t24 46q0 19 -18 34t-59 32q-78 32 -115 63.5t-37 87.5q0 76 57 126t150 50q58 0 113 -22t90 -53l-67 -78q-73 58 -145 58q-38 0 -59.5 -17t-21.5 -43q0 -20 19 -35t65 -34q71 -30 108 -62.5t37 -85.5
q0 -81 -59.5 -130t-151.5 -49z" />
    <glyph glyph-name="t" unicode="t" horiz-adv-x="409" 
d="M196 -9q-63 0 -97.5 28.5t-34.5 75.5q0 31 9 61l71 268h-67l28 104h67l39 145h121l-39 -145h141l-28 -104h-141l-68 -255q-4 -20 -4 -30q0 -41 53 -41q37 0 77 17l-28 -105q-42 -19 -99 -19z" />
    <glyph glyph-name="u" unicode="u" horiz-adv-x="618" 
d="M209 -11q-74 0 -117.5 42.5t-43.5 115.5q0 31 16 93l77 288h121l-79 -293q-7 -28 -7 -53q0 -40 24 -61.5t67 -21.5q50 0 89.5 36.5t55.5 95.5l80 297h121l-141 -528h-121l18 68q-79 -79 -160 -79z" />
    <glyph glyph-name="v" unicode="v" horiz-adv-x="582" 
d="M159 -4l-73 532h125l38 -386l243 386h132l-356 -532h-109z" />
    <glyph glyph-name="w" unicode="w" horiz-adv-x="853" 
d="M121 -4l-29 532h123l10 -360l214 362h103l20 -363l206 361h122l-316 -532h-109l-21 361l-216 -361h-107z" />
    <glyph glyph-name="x" unicode="x" horiz-adv-x="572" 
d="M233 528l75 -169l156 169h146l-256 -264l125 -264h-130l-79 180l-167 -180h-147l269 275l-122 253h130z" />
    <glyph glyph-name="y" unicode="y" horiz-adv-x="585" 
d="M168 -2l-77 530h124l44 -391l233 391h132l-341 -543q-53 -80 -103 -114t-114 -34q-68 0 -120 36l64 89q32 -23 68 -23q25 0 45 13t45 46z" />
    <glyph glyph-name="z" unicode="z" horiz-adv-x="554" 
d="M-24 0l23 83l388 346h-285l26 99h445l-22 -83l-389 -346h299l-26 -99h-459z" />
    <glyph glyph-name="braceleft" unicode="{" horiz-adv-x="487" 
d="M309 -141q-94 19 -135.5 58t-41.5 99q0 34 21 96q13 41 13 67q0 32 -17 47t-68 15h-31l25 92h30q71 0 102 31q32 31 48 128q18 106 65 154q66 66 214 69l6 -82q-96 -9 -134 -47q-31 -31 -44 -117q-19 -110 -54 -146q-37 -37 -107 -45q39 -7 60 -30t21 -57q0 -27 -16 -71
q-18 -58 -18 -84q0 -37 21.5 -60t78.5 -43z" />
    <glyph glyph-name="bar" unicode="|" horiz-adv-x="331" 
d="M12 -128l248 926h97l-249 -926h-96z" />
    <glyph glyph-name="braceright" unicode="}" horiz-adv-x="487" 
d="M190 715q94 -19 135.5 -58t41.5 -99q0 -34 -21 -96q-13 -41 -13 -67q0 -32 17 -47t68 -15h31l-25 -92h-30q-71 0 -102 -31q-32 -31 -48 -128q-18 -106 -65 -154q-66 -66 -214 -69l-6 82q96 9 134 47q31 31 44 117q19 110 54 146q37 37 107 45q-39 7 -60 30t-21 57
q0 27 16 71q18 58 18 84q0 37 -21.5 60t-78.5 43z" />
    <glyph glyph-name="asciitilde" unicode="~" horiz-adv-x="495" 
d="M132 228l-67 32q56 122 138 122q37 0 75 -31q36 -27 52 -27q33 0 67 59l67 -32q-56 -122 -138 -122q-37 0 -76 31q-36 27 -51 27q-33 0 -67 -59z" />
    <glyph glyph-name="uni00A0" unicode="&#xa0;" horiz-adv-x="300" 
 />
    <glyph glyph-name="exclamdown" unicode="&#xa1;" horiz-adv-x="303" 
d="M242 478l-81 -443l-10 -35h-142l10 35l156 443h67zM334 700l-37 -138h-133l37 138h133z" />
    <glyph glyph-name="cent" unicode="&#xa2;" horiz-adv-x="578" 
d="M438 706h88l-37 -94q79 -29 119 -103l-92 -63q-31 48 -71 66l-128 -328h8q76 0 145 56l66 -81q-89 -80 -208 -80q-24 0 -47 3l-34 -88h-88l43 110q-63 28 -98 84.5t-35 130.5q0 130 90 220q91 91 223 91q4 0 13 -0.5t13 -0.5zM189 321q0 -77 57 -114l125 318
q-68 -3 -121 -54q-61 -61 -61 -150z" />
    <glyph glyph-name="sterling" unicode="&#xa3;" horiz-adv-x="638" 
d="M-10 0l21 78l86 24l47 176h-79l28 104h79l28 105q26 98 80 152q70 70 180 70q141 0 205 -117l-99 -66q-22 35 -48.5 52.5t-66.5 17.5q-49 0 -84 -35q-32 -32 -49 -95l-24 -84h252l-28 -104h-251l-45 -171h326l-29 -107h-529z" />
    <glyph glyph-name="yen" unicode="&#xa5;" horiz-adv-x="708" 
d="M222 0l27 102h-192l24 89h192l19 73h-192l24 89h157l-138 347h134l107 -294l266 294h149l-328 -347h157l-24 -89h-193l-19 -73h193l-24 -89h-193l-27 -102h-119z" />
    <glyph glyph-name="section" unicode="&#xa7;" horiz-adv-x="632" 
d="M601 356q0 -60 -45.5 -92.5t-106.5 -39.5q46 -36 46 -86q0 -65 -60 -106t-150 -41q-73 0 -134 24t-97 65l76 70q68 -66 162 -66q38 0 62 14t24 36q0 20 -24.5 35t-88.5 34q-96 29 -142 59.5t-46 84.5q0 40 25 69.5t57 43t70 18.5q-46 33 -46 86q0 65 60 106t150 41
q73 0 134 -24t97 -65l-76 -70q-68 66 -162 66q-38 0 -62 -14t-24 -36q0 -20 24.5 -35t88.5 -34q95 -28 141.5 -58.5t46.5 -84.5zM192 366q0 -22 23 -37.5t77 -32.5q64 -21 105 -21q37 0 63 18t26 43q0 22 -23 37.5t-77 32.5q-64 21 -105 21q-37 0 -63 -18t-26 -43z" />
    <glyph glyph-name="dieresis" unicode="&#xa8;" horiz-adv-x="500" 
d="M174 595l32 119h123l-32 -119h-123zM373 595l32 119h123l-33 -119h-122z" />
    <glyph glyph-name="copyright" unicode="&#xa9;" horiz-adv-x="830" 
d="M414 159q-75 0 -122.5 44t-47.5 117q0 97 69 164q67 67 159 67q102 0 149 -81l-61 -42q-36 55 -95 55q-56 0 -97 -41q-48 -48 -48 -118q0 -46 26.5 -71.5t69.5 -25.5q47 0 98 42l47 -50q-64 -60 -147 -60zM797 394q0 -81 -31 -157t-88 -133q-116 -116 -279 -116
q-144 0 -232.5 90.5t-88.5 227.5q0 81 31 157t88 133q116 116 279 116q144 0 232.5 -90.5t88.5 -227.5zM117 307q0 -121 76 -202t207 -81q145 0 247 102q111 111 111 268q0 121 -76.5 201.5t-207.5 80.5q-145 0 -247 -102q-110 -110 -110 -267z" />
    <glyph glyph-name="ordfeminine" unicode="&#xaa;" horiz-adv-x="390" 
d="M189 403q-38 0 -62 22t-24 56q0 49 36.5 78t91.5 29q41 0 88 -15l2 7q4 12 4 20q0 43 -64 43q-41 0 -78 -15l-12 56q50 20 105 20q57 0 87 -23.5t30 -66.5q0 -15 -6 -43l-44 -162h-69l11 39q-43 -45 -96 -45zM217 453q29 0 55.5 20.5t33.5 48.5l2 10q-37 11 -65 11
q-31 0 -50 -15t-19 -39q0 -16 12 -26t31 -10zM53 282l16 58h259l-15 -58h-260z" />
    <glyph glyph-name="guillemotleft" unicode="&#xab;" horiz-adv-x="605" 
d="M160 36l-114 218l2 8l237 224l65 -61l-174 -179l74 -169zM410 36l-114 218l2 8l238 224l64 -61l-173 -179l73 -169z" />
    <glyph glyph-name="registered" unicode="&#xae;" horiz-adv-x="382" 
d="M282 710q69 0 112 -44t43 -109q0 -83 -57 -140t-135 -57q-69 0 -112 44t-43 109q0 83 57 140t135 57zM247 379q68 0 117 49q53 53 53 127q0 58 -37 97t-100 39q-68 0 -117 -49q-53 -53 -53 -127q0 -58 37 -97t100 -39zM227 505l-14 -57h-45l48 181h70q71 0 71 -55
q0 -50 -55 -64l27 -62h-46l-24 57h-32zM237 541h33q26 0 35 11q7 7 7 17q0 22 -30 22h-32z" />
    <glyph glyph-name="macron" unicode="&#xaf;" horiz-adv-x="500" 
d="M170 606l24 88h343l-24 -88h-343z" />
    <glyph glyph-name="degree" unicode="&#xb0;" horiz-adv-x="421" 
d="M272 706q67 0 107 -40.5t40 -103.5q0 -75 -55 -128q-51 -53 -125 -53q-67 0 -107.5 40t-40.5 103q0 74 55 129q53 53 126 53zM243 446q41 0 71 30q35 35 35 83q0 37 -22.5 59.5t-59.5 22.5q-41 0 -71 -30q-35 -35 -35 -83q0 -37 22.5 -59.5t59.5 -22.5z" />
    <glyph glyph-name="plusminus" unicode="&#xb1;" horiz-adv-x="634" 
d="M243 192l49 181h-188l28 107l188 -1l48 181h110l-49 -181l188 1l-28 -107h-188l-48 -181h-110zM5 0l27 103h484l-27 -103h-484z" />
    <glyph glyph-name="two.sup" unicode="&#xb2;" horiz-adv-x="400" 
d="M98 421l17 62l205 148q56 40 56 75q0 21 -15.5 34t-41.5 13q-49 0 -101 -52l-45 47q64 72 149 72q59 0 94.5 -29.5t35.5 -77.5q0 -36 -20.5 -66t-75.5 -66l-139 -96h185l-17 -64h-287z" />
    <glyph glyph-name="three.sup" unicode="&#xb3;" horiz-adv-x="400" 
d="M255 411q-98 0 -146 66l49 47q42 -47 97 -47q36 0 61 18.5t25 45.5q0 53 -84 53h-24l-8 44l139 106h-167l18 66h264l-16 -56l-148 -110q101 -14 101 -96q0 -59 -46.5 -98t-114.5 -39z" />
    <glyph glyph-name="acute" unicode="&#xb4;" horiz-adv-x="500" 
d="M221 595l150 164l108 -49l-153 -115h-105z" />
    <glyph glyph-name="paragraph" unicode="&#xb6;" horiz-adv-x="565" 
d="M281 0l60 227q-136 5 -199 68q-50 50 -50 136q0 109 70 178q89 91 274 91h156l-188 -700h-123z" />
    <glyph glyph-name="periodcentered" unicode="&#xb7;" horiz-adv-x="293" 
d="M69 238l37 137h134l-37 -137h-134z" />
    <glyph glyph-name="cedilla" unicode="&#xb8;" horiz-adv-x="500" 
d="M145 -166l-93 45l124 131h91z" />
    <glyph glyph-name="one.sup" unicode="&#xb9;" horiz-adv-x="325" 
d="M192 421l84 314l-87 -29l-5 63l130 46h55l-105 -394h-72z" />
    <glyph glyph-name="ordmasculine" unicode="&#xba;" horiz-adv-x="398" 
d="M54 282l15 58h275l-15 -58h-275zM177 538q0 -34 20 -55t52 -21q36 0 64 28q32 32 32 78q0 34 -20 55t-52 21q-35 0 -64 -27q-32 -34 -32 -79zM415 571q0 -70 -52 -120q-48 -50 -117 -50q-63 0 -101 37.5t-38 96.5q0 69 52 121q49 49 117 49q63 0 101 -37.5t38 -96.5z" />
    <glyph glyph-name="guillemotright" unicode="&#xbb;" horiz-adv-x="605" 
d="M442 485l114 -218l-2 -8l-237 -224l-65 61l174 179l-74 169zM192 485l114 -218l-2 -8l-238 -224l-64 61l173 179l-73 169z" />
    <glyph glyph-name="onequarter" unicode="&#xbc;" horiz-adv-x="825" 
d="M572 -1l23 85h-189l10 69l251 242h79l-68 -252h53l-16 -59h-53l-23 -85h-67zM31 0l347 364l314 336h77l-347 -364l-314 -336h-77zM139 311l84 315l-86 -30l-6 63l130 47h55l-105 -395h-72zM483 142h128l45 168z" />
    <glyph glyph-name="onehalf" unicode="&#xbd;" horiz-adv-x="825" 
d="M397 0l17 62l205 148q56 40 56 75q0 21 -15.5 34t-41.5 13q-49 0 -101 -52l-45 47q64 72 149 72q59 0 94.5 -29.5t35.5 -77.5q0 -36 -20.5 -66t-75.5 -66l-139 -96h185l-17 -64h-287zM21 0l347 364l314 336h77l-347 -364l-314 -336h-77zM139 311l84 315l-86 -30l-6 63
l130 47h55l-105 -395h-72z" />
    <glyph glyph-name="threequarters" unicode="&#xbe;" horiz-adv-x="900" 
d="M647 -1l23 85h-189l10 69l251 242h79l-68 -252h53l-16 -59h-53l-23 -85h-67zM202 301q-98 0 -145 67l49 46q42 -47 96 -47q37 0 62 19t25 46q0 52 -85 52h-24l-7 44l139 106h-168l18 66h264l-15 -56l-148 -110q101 -14 101 -96q0 -59 -46.5 -98t-115.5 -39zM101 0
l347 364l314 336h77l-347 -364l-314 -336h-77zM558 142h128l45 168z" />
    <glyph glyph-name="questiondown" unicode="&#xbf;" horiz-adv-x="541" 
d="M405 478l-23 -162l-6 -5q-102 -7 -158.5 -39.5t-56.5 -86.5q0 -39 27 -60.5t76 -21.5q86 0 159 68l66 -81q-97 -99 -241 -99q-99 0 -157.5 52t-58.5 128q0 90 68 146.5t191 74.5l33 86h81zM488 700l-37 -138h-133l37 138h133z" />
    <glyph glyph-name="Agrave" unicode="&#xc0;" horiz-adv-x="763" 
d="M-50 0l497 705h118l119 -705h-126l-27 169h-331l-116 -169h-134zM275 278h241l-45 283zM471 768l-101 97l112 48l73 -145h-84z" />
    <glyph glyph-name="Aacute" unicode="&#xc1;" horiz-adv-x="763" 
d="M-50 0l497 705h118l119 -705h-126l-27 169h-331l-116 -169h-134zM275 278h241l-45 283zM468 768l152 145l107 -48l-153 -97h-106z" />
    <glyph glyph-name="Acircumflex" unicode="&#xc2;" horiz-adv-x="763" 
d="M-50 0l497 705h118l119 -705h-126l-27 169h-331l-116 -169h-134zM275 278h241l-45 283zM336 764l157 135h114l85 -135h-94l-61 58l-93 -58h-108z" />
    <glyph glyph-name="Atilde" unicode="&#xc3;" horiz-adv-x="763" 
d="M-50 0l497 705h118l119 -705h-126l-27 169h-331l-116 -169h-134zM275 278h241l-45 283zM404 758l-67 23q28 63 57 92t72 29q28 0 83 -21q42 -18 58 -18q20 0 34 11t30 37l67 -22q-28 -63 -57 -92t-72 -29q-28 0 -83 21q-42 18 -58 18q-20 0 -34 -11.5t-30 -37.5z" />
    <glyph glyph-name="Adieresis" unicode="&#xc4;" horiz-adv-x="763" 
d="M-50 0l497 705h118l119 -705h-126l-27 169h-331l-116 -169h-134zM275 278h241l-45 283zM359 768l31 112h124l-31 -112h-124zM564 768l31 112h124l-31 -112h-124z" />
    <glyph glyph-name="Aring" unicode="&#xc5;" horiz-adv-x="763" 
d="M-50 0l472 670q-25 27 -25 62q0 50 37 84.5t96 34.5q46 0 76.5 -27t30.5 -66q0 -69 -63 -103l110 -655h-126l-27 169h-331l-116 -169h-134zM275 278h241l-45 283zM509 686q31 0 52.5 20.5t21.5 46.5q0 23 -16 37t-41 14q-32 0 -53 -20t-21 -47q0 -23 15.5 -37t41.5 -14z
" />
    <glyph glyph-name="AE" unicode="&#xc6;" horiz-adv-x="1056" 
d="M-52 0l579 700h590l-30 -110h-374l-49 -183h330l-30 -109h-329l-51 -188h380l-30 -110h-502l46 169h-256l-138 -169h-136zM311 278h196l84 315h-21z" />
    <glyph glyph-name="Ccedilla" unicode="&#xc7;" horiz-adv-x="730" 
d="M277 -166l-93 45l113 120q-101 25 -161.5 100.5t-60.5 186.5q0 84 33.5 162.5t93.5 138.5q125 125 296 125q187 0 273 -150l-102 -69q-34 52 -77 79t-108 27q-103 0 -187 -82q-94 -94 -94 -226q0 -86 53 -137.5t138 -51.5q55 0 97.5 19.5t87.5 59.5l81 -82
q-114 -111 -269 -111h-8z" />
    <glyph glyph-name="Egrave" unicode="&#xc8;" horiz-adv-x="660" 
d="M424 758l-101 97l112 48l73 -145h-84zM19 0l188 700h514l-30 -110h-391l-49 -183h347l-30 -109h-346l-51 -188h397l-30 -110h-519z" />
    <glyph glyph-name="Eacute" unicode="&#xc9;" horiz-adv-x="660" 
d="M421 758l152 145l107 -48l-153 -97h-106zM19 0l188 700h514l-30 -110h-391l-49 -183h347l-30 -109h-346l-51 -188h397l-30 -110h-519z" />
    <glyph glyph-name="Ecircumflex" unicode="&#xca;" horiz-adv-x="660" 
d="M19 0l188 700h514l-30 -110h-391l-49 -183h347l-30 -109h-346l-51 -188h397l-30 -110h-519zM291 758l157 135h114l85 -135h-94l-61 58l-93 -58h-108z" />
    <glyph glyph-name="Edieresis" unicode="&#xcb;" horiz-adv-x="660" 
d="M312 758l31 112h124l-31 -112h-124zM517 758l31 112h124l-31 -112h-124zM19 0l188 700h514l-30 -110h-391l-49 -183h347l-30 -109h-346l-51 -188h397l-30 -110h-519z" />
    <glyph glyph-name="Igrave" unicode="&#xcc;" horiz-adv-x="317" 
d="M26 0l188 700h124l-188 -700h-124zM239 758l-101 97l112 48l73 -145h-84z" />
    <glyph glyph-name="Iacute" unicode="&#xcd;" horiz-adv-x="317" 
d="M26 0l188 700h124l-188 -700h-124zM236 758l152 145l107 -48l-153 -97h-106z" />
    <glyph glyph-name="Icircumflex" unicode="&#xce;" horiz-adv-x="317" 
d="M26 0l188 700h124l-188 -700h-124zM106 758l157 135h114l85 -135h-94l-61 58l-93 -58h-108z" />
    <glyph glyph-name="Idieresis" unicode="&#xcf;" horiz-adv-x="317" 
d="M26 0l188 700h124l-188 -700h-124zM127 758l31 112h124l-31 -112h-124zM332 758l31 112h124l-31 -112h-124z" />
    <glyph glyph-name="Eth" unicode="&#xd0;" horiz-adv-x="798" 
d="M41 297l30 110h80l79 293h190q183 0 274 -91q76 -76 76 -204q0 -161 -113 -274q-131 -131 -364 -131h-251l80 297h-81zM593 529q-59 59 -182 59h-87l-49 -181h169l-30 -110h-169l-50 -185h113q161 0 256 95q78 78 78 193q0 80 -49 129z" />
    <glyph glyph-name="Ntilde" unicode="&#xd1;" horiz-adv-x="786" 
d="M406 747l-67 23q28 63 57 92t72 29q28 0 83 -21q42 -18 58 -18q20 0 34 11t30 37l67 -22q-28 -63 -57 -92t-72 -29q-28 0 -83 21q-42 18 -58 18q-20 0 -34 -11.5t-30 -37.5zM19 0l188 700h114l237 -495l134 495h121l-188 -700h-103l-245 509l-136 -509h-122z" />
    <glyph glyph-name="Ograve" unicode="&#xd2;" horiz-adv-x="836" 
d="M491 768l-101 97l112 48l73 -145h-84zM491 712q140 0 227.5 -87.5t87.5 -219.5q0 -82 -33 -159.5t-92 -136.5q-119 -121 -291 -121q-139 0 -226.5 87.5t-87.5 219.5q0 82 33 160t92 136q119 121 290 121zM403 101q105 0 184 79q43 43 67 101t24 117q0 88 -53.5 144.5
t-145.5 56.5q-105 0 -184 -79q-43 -43 -67 -101t-24 -117q0 -89 53.5 -145t145.5 -56z" />
    <glyph glyph-name="Oacute" unicode="&#xd3;" horiz-adv-x="836" 
d="M482 768l152 145l107 -48l-153 -97h-106zM491 712q140 0 227.5 -87.5t87.5 -219.5q0 -82 -33 -159.5t-92 -136.5q-119 -121 -291 -121q-139 0 -226.5 87.5t-87.5 219.5q0 82 33 160t92 136q119 121 290 121zM403 101q105 0 184 79q43 43 67 101t24 117q0 88 -53.5 144.5
t-145.5 56.5q-105 0 -184 -79q-43 -43 -67 -101t-24 -117q0 -89 53.5 -145t145.5 -56z" />
    <glyph glyph-name="Ocircumflex" unicode="&#xd4;" horiz-adv-x="836" 
d="M491 712q140 0 227.5 -87.5t87.5 -219.5q0 -82 -33 -159.5t-92 -136.5q-119 -121 -291 -121q-139 0 -226.5 87.5t-87.5 219.5q0 82 33 160t92 136q119 121 290 121zM403 101q105 0 184 79q43 43 67 101t24 117q0 88 -53.5 144.5t-145.5 56.5q-105 0 -184 -79
q-43 -43 -67 -101t-24 -117q0 -89 53.5 -145t145.5 -56zM357 768l157 135h114l85 -135h-94l-61 58l-93 -58h-108z" />
    <glyph glyph-name="Otilde" unicode="&#xd5;" horiz-adv-x="836" 
d="M425 758l-67 23q28 63 57 92t72 29q28 0 83 -21q42 -18 58 -18q20 0 34 11t30 37l67 -22q-28 -63 -57 -92t-72 -29q-28 0 -83 21q-42 18 -58 18q-20 0 -34 -11.5t-30 -37.5zM491 712q140 0 227.5 -87.5t87.5 -219.5q0 -82 -33 -159.5t-92 -136.5q-119 -121 -291 -121
q-139 0 -226.5 87.5t-87.5 219.5q0 82 33 160t92 136q119 121 290 121zM403 101q105 0 184 79q43 43 67 101t24 117q0 88 -53.5 144.5t-145.5 56.5q-105 0 -184 -79q-43 -43 -67 -101t-24 -117q0 -89 53.5 -145t145.5 -56z" />
    <glyph glyph-name="Odieresis" unicode="&#xd6;" horiz-adv-x="836" 
d="M378 768l31 112h124l-31 -112h-124zM583 768l31 112h124l-31 -112h-124zM491 712q140 0 227.5 -87.5t87.5 -219.5q0 -82 -33 -159.5t-92 -136.5q-119 -121 -291 -121q-139 0 -226.5 87.5t-87.5 219.5q0 82 33 160t92 136q119 121 290 121zM403 101q105 0 184 79
q43 43 67 101t24 117q0 88 -53.5 144.5t-145.5 56.5q-105 0 -184 -79q-43 -43 -67 -101t-24 -117q0 -89 53.5 -145t145.5 -56z" />
    <glyph glyph-name="multiply" unicode="&#xd7;" horiz-adv-x="634" 
d="M122 112l-63 84l209 162l-120 161l93 73l116 -164l207 165l63 -85l-208 -161l120 -160l-94 -73l-116 163z" />
    <glyph glyph-name="Oslash" unicode="&#xd8;" horiz-adv-x="836" 
d="M491 712q128 0 215 -76l78 69h124l-148 -133q46 -75 46 -167q0 -82 -33 -159.5t-92 -136.5q-119 -121 -291 -121q-130 0 -215 76l-78 -69h-123l148 132q-46 74 -46 168q0 82 33 160t92 136q119 121 290 121zM402 96q106 0 187 81q43 43 68 102.5t25 119.5q0 50 -19 94
l-395 -353q52 -44 134 -44zM200 301q0 -53 18 -95l395 353q-52 44 -134 44q-106 0 -186 -80q-44 -43 -68.5 -102t-24.5 -120z" />
    <glyph glyph-name="Ugrave" unicode="&#xd9;" horiz-adv-x="762" 
d="M452 757l-101 97l112 48l73 -145h-84zM345 -11q-122 0 -190.5 62t-68.5 169q0 56 16 111l98 369h124l-104 -386q-10 -38 -10 -77q0 -60 38 -97t109 -37q79 0 131 52q53 53 77 147l107 398h123l-112 -417q-36 -134 -109 -207q-87 -87 -229 -87z" />
    <glyph glyph-name="Uacute" unicode="&#xda;" horiz-adv-x="762" 
d="M449 757l152 145l107 -48l-153 -97h-106zM345 -11q-122 0 -190.5 62t-68.5 169q0 56 16 111l98 369h124l-104 -386q-10 -38 -10 -77q0 -60 38 -97t109 -37q79 0 131 52q53 53 77 147l107 398h123l-112 -417q-36 -134 -109 -207q-87 -87 -229 -87z" />
    <glyph glyph-name="Ucircumflex" unicode="&#xdb;" horiz-adv-x="762" 
d="M345 -11q-122 0 -190.5 62t-68.5 169q0 56 16 111l98 369h124l-104 -386q-10 -38 -10 -77q0 -60 38 -97t109 -37q79 0 131 52q53 53 77 147l107 398h123l-112 -417q-36 -134 -109 -207q-87 -87 -229 -87zM319 757l157 135h114l85 -135h-94l-61 58l-93 -58h-108z" />
    <glyph glyph-name="Udieresis" unicode="&#xdc;" horiz-adv-x="762" 
d="M340 757l31 112h124l-31 -112h-124zM545 757l31 112h124l-31 -112h-124zM345 -11q-122 0 -190.5 62t-68.5 169q0 56 16 111l98 369h124l-104 -386q-10 -38 -10 -77q0 -60 38 -97t109 -37q79 0 131 52q53 53 77 147l107 398h123l-112 -417q-36 -134 -109 -207
q-87 -87 -229 -87z" />
    <glyph glyph-name="Yacute" unicode="&#xdd;" horiz-adv-x="655" 
d="M189 0l74 278l-156 422h137l105 -316l277 316h152l-395 -435l-71 -265h-123zM389 757l152 145l107 -48l-153 -97h-106z" />
    <glyph glyph-name="Thorn" unicode="&#xde;" horiz-adv-x="683" 
d="M19 0l188 700h123l-28 -109h97q143 0 212 -69q52 -54 52 -138q0 -104 -69 -173q-93 -93 -273 -93h-146l-32 -118h-124zM204 226h123q116 0 171 55q37 37 37 93q0 41 -27 68q-36 37 -114 37h-123z" />
    <glyph glyph-name="germandbls" unicode="&#xdf;" horiz-adv-x="628" 
d="M225 -2l26 96q100 -1 147 33.5t47 88.5q0 83 -135 101l22 83q164 39 164 145q0 41 -27 65t-70 24q-51 0 -87.5 -37t-54.5 -105l-131 -492h-121l135 502q30 109 87 166q71 69 177 69q95 0 151.5 -51t56.5 -130q0 -144 -172 -197q121 -42 121 -146q0 -99 -86.5 -159
t-249.5 -56z" />
    <glyph glyph-name="agrave" unicode="&#xe0;" horiz-adv-x="583" 
d="M171 -11q-69 0 -114 40t-45 104q0 75 50 127q66 64 181 64q77 0 164 -26l3 9q6 26 6 44q0 80 -117 80q-72 0 -144 -29l-20 98q90 35 188 35q103 0 157 -42.5t54 -120.5q0 -29 -11 -77l-79 -295h-117l18 70q-73 -81 -174 -81zM219 76q55 0 101.5 36.5t61.5 89.5l7 24
q-62 20 -128 20q-65 0 -102 -35q-26 -26 -26 -64q0 -32 23.5 -51.5t62.5 -19.5zM320 595l-91 115l113 49l61 -164h-83z" />
    <glyph glyph-name="aacute" unicode="&#xe1;" horiz-adv-x="583" 
d="M171 -11q-69 0 -114 40t-45 104q0 75 50 127q66 64 181 64q77 0 164 -26l3 9q6 26 6 44q0 80 -117 80q-72 0 -144 -29l-20 98q90 35 188 35q103 0 157 -42.5t54 -120.5q0 -29 -11 -77l-79 -295h-117l18 70q-73 -81 -174 -81zM219 76q55 0 101.5 36.5t61.5 89.5l7 24
q-62 20 -128 20q-65 0 -102 -35q-26 -26 -26 -64q0 -32 23.5 -51.5t62.5 -19.5zM316 595l150 164l108 -49l-153 -115h-105z" />
    <glyph glyph-name="acircumflex" unicode="&#xe2;" horiz-adv-x="583" 
d="M171 -11q-69 0 -114 40t-45 104q0 75 50 127q66 64 181 64q77 0 164 -26l3 9q6 26 6 44q0 80 -117 80q-72 0 -144 -29l-20 98q90 35 188 35q103 0 157 -42.5t54 -120.5q0 -29 -11 -77l-79 -295h-117l18 70q-73 -81 -174 -81zM219 76q55 0 101.5 36.5t61.5 89.5l7 24
q-62 20 -128 20q-65 0 -102 -35q-26 -26 -26 -64q0 -32 23.5 -51.5t62.5 -19.5zM191 595l155 147h113l77 -147h-90l-59 67l-96 -67h-100z" />
    <glyph glyph-name="atilde" unicode="&#xe3;" horiz-adv-x="583" 
d="M171 -11q-69 0 -114 40t-45 104q0 75 50 127q66 64 181 64q77 0 164 -26l3 9q6 26 6 44q0 80 -117 80q-72 0 -144 -29l-20 98q90 35 188 35q103 0 157 -42.5t54 -120.5q0 -29 -11 -77l-79 -295h-117l18 70q-73 -81 -174 -81zM219 76q55 0 101.5 36.5t61.5 89.5l7 24
q-62 20 -128 20q-65 0 -102 -35q-26 -26 -26 -64q0 -32 23.5 -51.5t62.5 -19.5zM515 740l67 -22q-29 -64 -58 -93.5t-72 -29.5q-30 0 -80 22q-42 18 -56 18q-21 0 -34.5 -11.5t-29.5 -38.5l-67 22q28 64 57 93.5t73 29.5q29 0 79 -22q44 -18 57 -18q21 0 34 11t30 39z" />
    <glyph glyph-name="adieresis" unicode="&#xe4;" horiz-adv-x="583" 
d="M171 -11q-69 0 -114 40t-45 104q0 75 50 127q66 64 181 64q77 0 164 -26l3 9q6 26 6 44q0 80 -117 80q-72 0 -144 -29l-20 98q90 35 188 35q103 0 157 -42.5t54 -120.5q0 -29 -11 -77l-79 -295h-117l18 70q-73 -81 -174 -81zM219 76q55 0 101.5 36.5t61.5 89.5l7 24
q-62 20 -128 20q-65 0 -102 -35q-26 -26 -26 -64q0 -32 23.5 -51.5t62.5 -19.5zM208 595l32 119h123l-32 -119h-123zM407 595l32 119h123l-33 -119h-122z" />
    <glyph glyph-name="aring" unicode="&#xe5;" horiz-adv-x="583" 
d="M171 -11q-69 0 -114 40t-45 104q0 75 50 127q66 64 181 64q77 0 164 -26l3 9q6 26 6 44q0 80 -117 80q-72 0 -144 -29l-20 98q90 35 188 35q103 0 157 -42.5t54 -120.5q0 -29 -11 -77l-79 -295h-117l18 70q-73 -81 -174 -81zM219 76q55 0 101.5 36.5t61.5 89.5l7 24
q-62 20 -128 20q-65 0 -102 -35q-26 -26 -26 -64q0 -32 23.5 -51.5t62.5 -19.5zM515 718q0 -50 -37 -87.5t-89 -37.5q-47 0 -77 28.5t-30 70.5q0 50 37 87.5t89 37.5q48 0 77.5 -28.5t29.5 -70.5zM334 696q0 -26 15.5 -42t41.5 -16q31 0 52 23t21 53q0 26 -16 42t-42 16
q-30 0 -51 -23.5t-21 -52.5z" />
    <glyph glyph-name="ae" unicode="&#xe6;" horiz-adv-x="948" 
d="M633 -12q-71 0 -123.5 28.5t-80.5 81.5q-104 -109 -246 -109q-78 0 -124.5 39t-46.5 105q0 75 50 127q66 64 181 64q77 0 164 -26l3 9q6 26 6 44q0 80 -117 80q-72 0 -144 -29l-20 98q90 35 188 35q142 0 181 -92q86 96 203 96q96 0 151.5 -58t55.5 -147q0 -57 -23 -112
h-384q0 -62 35.5 -98.5t101.5 -36.5q67 0 136 51l57 -77q-84 -73 -204 -73zM227 76q98 0 180 85q-6 26 -4 59q-67 26 -142 26q-65 0 -102 -35q-26 -26 -26 -64q0 -32 25 -51.5t69 -19.5zM572 388q-35 -35 -52 -86h275q4 18 4 37q0 44 -26 72.5t-79 28.5q-70 0 -122 -52z" />
    <glyph glyph-name="ccedilla" unicode="&#xe7;" horiz-adv-x="561" 
d="M181 -166l-93 45l115 121q-72 23 -115.5 81.5t-43.5 141.5q0 130 93 223t219 93q146 0 214 -120l-94 -64q-24 38 -53.5 58.5t-76.5 20.5q-64 0 -116 -52q-65 -67 -65 -158q0 -60 36 -96t89 -36q68 0 135 59l64 -79q-91 -83 -202 -84z" />
    <glyph glyph-name="egrave" unicode="&#xe8;" 
d="M543 222h-384q0 -62 35.5 -98.5t101.5 -36.5q68 0 135 51l58 -77q-87 -73 -205 -73q-110 0 -175 62.5t-65 168.5q0 63 25.5 123.5t71.5 106.5q90 90 214 90q99 0 155 -58t56 -147q0 -57 -23 -112zM224 388q-35 -35 -52 -86h274q5 15 5 37q0 44 -26.5 72.5t-78.5 28.5
q-70 0 -122 -52zM344 595l-91 115l113 49l61 -164h-83z" />
    <glyph glyph-name="eacute" unicode="&#xe9;" 
d="M543 222h-384q0 -62 35.5 -98.5t101.5 -36.5q68 0 135 51l58 -77q-87 -73 -205 -73q-110 0 -175 62.5t-65 168.5q0 63 25.5 123.5t71.5 106.5q90 90 214 90q99 0 155 -58t56 -147q0 -57 -23 -112zM224 388q-35 -35 -52 -86h274q5 15 5 37q0 44 -26.5 72.5t-78.5 28.5
q-70 0 -122 -52zM340 595l150 164l108 -49l-153 -115h-105z" />
    <glyph glyph-name="ecircumflex" unicode="&#xea;" 
d="M543 222h-384q0 -62 35.5 -98.5t101.5 -36.5q68 0 135 51l58 -77q-87 -73 -205 -73q-110 0 -175 62.5t-65 168.5q0 63 25.5 123.5t71.5 106.5q90 90 214 90q99 0 155 -58t56 -147q0 -57 -23 -112zM224 388q-35 -35 -52 -86h274q5 15 5 37q0 44 -26.5 72.5t-78.5 28.5
q-70 0 -122 -52zM215 595l155 147h113l77 -147h-90l-59 67l-96 -67h-100z" />
    <glyph glyph-name="edieresis" unicode="&#xeb;" 
d="M543 222h-384q0 -62 35.5 -98.5t101.5 -36.5q68 0 135 51l58 -77q-87 -73 -205 -73q-110 0 -175 62.5t-65 168.5q0 63 25.5 123.5t71.5 106.5q90 90 214 90q99 0 155 -58t56 -147q0 -57 -23 -112zM224 388q-35 -35 -52 -86h274q5 15 5 37q0 44 -26.5 72.5t-78.5 28.5
q-70 0 -122 -52zM232 595l32 119h123l-32 -119h-123zM431 595l32 119h123l-33 -119h-122z" />
    <glyph glyph-name="igrave" unicode="&#xec;" horiz-adv-x="286" 
d="M12 0l142 528h121l-142 -528h-121zM183 595l-91 115l113 49l61 -164h-83z" />
    <glyph glyph-name="iacute" unicode="&#xed;" horiz-adv-x="286" 
d="M180 595l150 164l108 -49l-153 -115h-105zM12 0l142 528h121l-142 -528h-121z" />
    <glyph glyph-name="icircumflex" unicode="&#xee;" horiz-adv-x="286" 
d="M55 595l155 147h113l77 -147h-90l-59 67l-96 -67h-100zM12 0l142 528h121l-142 -528h-121z" />
    <glyph glyph-name="idieresis" unicode="&#xef;" horiz-adv-x="286" 
d="M72 595l32 119h123l-32 -119h-123zM271 595l32 119h123l-33 -119h-122zM12 0l142 528h121l-142 -528h-121z" />
    <glyph glyph-name="eth" unicode="&#xf0;" horiz-adv-x="644" 
d="M255 566l-22 66l108 34q-19 22 -59 64h150l24 -29l116 37l24 -65l-97 -31q102 -153 102 -300q0 -163 -103 -266q-88 -88 -214 -88q-108 0 -174 65t-66 173q0 132 90 220q79 81 189 81q91 0 155 -75q-26 70 -90 156zM294 91q69 0 122 53q62 64 62 148q0 62 -37.5 100.5
t-98.5 38.5q-69 0 -119 -50q-60 -62 -60 -149q0 -65 34.5 -103t96.5 -38z" />
    <glyph glyph-name="ntilde" unicode="&#xf1;" horiz-adv-x="617" 
d="M5 0l141 528h121l-18 -67q80 78 161 78q73 0 116.5 -42.5t43.5 -115.5q0 -31 -16 -93l-76 -288h-121l78 293q8 27 8 53q0 40 -24 61.5t-68 21.5q-50 0 -89.5 -36.5t-55.5 -95.5l-79 -297h-122zM537 740l67 -22q-29 -64 -58 -93.5t-72 -29.5q-30 0 -80 22q-42 18 -56 18
q-21 0 -34.5 -11.5t-29.5 -38.5l-67 22q28 64 57 93.5t73 29.5q29 0 79 -22q44 -18 57 -18q21 0 34 11t30 39z" />
    <glyph glyph-name="ograve" unicode="&#xf2;" horiz-adv-x="646" 
d="M353 539q112 0 180 -68t68 -174q0 -126 -93 -217q-90 -92 -215 -92q-112 0 -180 67.5t-68 173.5q0 125 93 218q90 92 215 92zM300 93q68 0 117 51q30 29 47 70t17 80q0 66 -37 103t-98 37q-64 0 -117 -51q-30 -29 -47 -70t-17 -80q0 -66 37 -103t98 -37zM357 595l-91 115
l113 49l61 -164h-83z" />
    <glyph glyph-name="oacute" unicode="&#xf3;" horiz-adv-x="646" 
d="M349 595l150 164l108 -49l-153 -115h-105zM353 539q112 0 180 -68t68 -174q0 -126 -93 -217q-90 -92 -215 -92q-112 0 -180 67.5t-68 173.5q0 125 93 218q90 92 215 92zM300 93q68 0 117 51q30 29 47 70t17 80q0 66 -37 103t-98 37q-64 0 -117 -51q-30 -29 -47 -70
t-17 -80q0 -66 37 -103t98 -37z" />
    <glyph glyph-name="ocircumflex" unicode="&#xf4;" horiz-adv-x="646" 
d="M229 595l155 147h113l77 -147h-90l-59 67l-96 -67h-100zM353 539q112 0 180 -68t68 -174q0 -126 -93 -217q-90 -92 -215 -92q-112 0 -180 67.5t-68 173.5q0 125 93 218q90 92 215 92zM300 93q68 0 117 51q30 29 47 70t17 80q0 66 -37 103t-98 37q-64 0 -117 -51
q-30 -29 -47 -70t-17 -80q0 -66 37 -103t98 -37z" />
    <glyph glyph-name="otilde" unicode="&#xf5;" horiz-adv-x="646" 
d="M353 539q112 0 180 -68t68 -174q0 -126 -93 -217q-90 -92 -215 -92q-112 0 -180 67.5t-68 173.5q0 125 93 218q90 92 215 92zM300 93q68 0 117 51q30 29 47 70t17 80q0 66 -37 103t-98 37q-64 0 -117 -51q-30 -29 -47 -70t-17 -80q0 -66 37 -103t98 -37zM554 740l67 -22
q-29 -64 -58 -93.5t-72 -29.5q-30 0 -80 22q-42 18 -56 18q-21 0 -34.5 -11.5t-29.5 -38.5l-67 22q28 64 57 93.5t73 29.5q29 0 79 -22q44 -18 57 -18q21 0 34 11t30 39z" />
    <glyph glyph-name="odieresis" unicode="&#xf6;" horiz-adv-x="646" 
d="M246 595l32 119h123l-32 -119h-123zM445 595l32 119h123l-33 -119h-122zM353 539q112 0 180 -68t68 -174q0 -126 -93 -217q-90 -92 -215 -92q-112 0 -180 67.5t-68 173.5q0 125 93 218q90 92 215 92zM300 93q68 0 117 51q30 29 47 70t17 80q0 66 -37 103t-98 37
q-64 0 -117 -51q-30 -29 -47 -70t-17 -80q0 -66 37 -103t98 -37z" />
    <glyph glyph-name="divide" unicode="&#xf7;" horiz-adv-x="634" 
d="M202 80l33 128h134l-34 -128h-133zM78 300l28 104h498l-28 -104h-498zM313 497l34 127h133l-34 -127h-133z" />
    <glyph glyph-name="oslash" unicode="&#xf8;" horiz-adv-x="646" 
d="M353 539q100 0 168 -57l57 51h113l-122 -109q32 -55 32 -127q0 -126 -93 -217q-90 -92 -215 -92q-103 0 -168 56l-57 -50h-113l122 108q-32 55 -32 127q0 125 93 218q90 92 215 92zM349 438q-69 0 -123 -54q-65 -63 -65 -151q0 -35 7 -57l268 236q-35 26 -87 26zM485 294
q0 30 -8 56l-267 -236q32 -25 87 -25q69 0 123 54q65 63 65 151z" />
    <glyph glyph-name="ugrave" unicode="&#xf9;" horiz-adv-x="618" 
d="M209 -11q-74 0 -117.5 42.5t-43.5 115.5q0 31 16 93l77 288h121l-79 -293q-7 -28 -7 -53q0 -40 24 -61.5t67 -21.5q50 0 89.5 36.5t55.5 95.5l80 297h121l-141 -528h-121l18 68q-79 -79 -160 -79zM343 595l-91 115l113 49l61 -164h-83z" />
    <glyph glyph-name="uacute" unicode="&#xfa;" horiz-adv-x="618" 
d="M339 595l150 164l108 -49l-153 -115h-105zM209 -11q-74 0 -117.5 42.5t-43.5 115.5q0 31 16 93l77 288h121l-79 -293q-7 -28 -7 -53q0 -40 24 -61.5t67 -21.5q50 0 89.5 36.5t55.5 95.5l80 297h121l-141 -528h-121l18 68q-79 -79 -160 -79z" />
    <glyph glyph-name="ucircumflex" unicode="&#xfb;" horiz-adv-x="618" 
d="M213 595l155 147h113l77 -147h-90l-59 67l-96 -67h-100zM209 -11q-74 0 -117.5 42.5t-43.5 115.5q0 31 16 93l77 288h121l-79 -293q-7 -28 -7 -53q0 -40 24 -61.5t67 -21.5q50 0 89.5 36.5t55.5 95.5l80 297h121l-141 -528h-121l18 68q-79 -79 -160 -79z" />
    <glyph glyph-name="udieresis" unicode="&#xfc;" horiz-adv-x="618" 
d="M230 595l32 119h123l-32 -119h-123zM429 595l32 119h123l-33 -119h-122zM209 -11q-74 0 -117.5 42.5t-43.5 115.5q0 31 16 93l77 288h121l-79 -293q-7 -28 -7 -53q0 -40 24 -61.5t67 -21.5q50 0 89.5 36.5t55.5 95.5l80 297h121l-141 -528h-121l18 68q-79 -79 -160 -79z
" />
    <glyph glyph-name="yacute" unicode="&#xfd;" horiz-adv-x="585" 
d="M168 -2l-77 530h124l44 -391l233 391h132l-341 -543q-53 -80 -103 -114t-114 -34q-68 0 -120 36l64 89q32 -23 68 -23q25 0 45 13t45 46zM313 595l150 164l108 -49l-153 -115h-105z" />
    <glyph glyph-name="thorn" unicode="&#xfe;" horiz-adv-x="668" 
d="M322 730l-74 -272q81 81 169 81q90 0 148 -61.5t58 -164.5q0 -142 -96 -238q-86 -86 -197 -86q-122 0 -179 105l-67 -254h-122l239 890h121zM315 93q69 0 118 51q64 62 64 161q0 60 -34 95t-91 35q-70 0 -125 -55q-65 -65 -65 -154q0 -58 37.5 -95.5t95.5 -37.5z" />
    <glyph glyph-name="ydieresis" unicode="&#xff;" horiz-adv-x="585" 
d="M168 -2l-77 530h124l44 -391l233 391h132l-341 -543q-53 -80 -103 -114t-114 -34q-68 0 -120 36l64 89q32 -23 68 -23q25 0 45 13t45 46zM205 595l32 119h123l-32 -119h-123zM404 595l32 119h123l-33 -119h-122z" />
    <glyph glyph-name="Amacron" unicode="&#x100;" horiz-adv-x="763" 
d="M-50 0l497 705h118l119 -705h-126l-27 169h-331l-116 -169h-134zM275 278h241l-45 283zM347 779l24 90h359l-24 -90h-359z" />
    <glyph glyph-name="amacron" unicode="&#x101;" horiz-adv-x="583" 
d="M171 -11q-69 0 -114 40t-45 104q0 75 50 127q66 64 181 64q77 0 164 -26l3 9q6 26 6 44q0 80 -117 80q-72 0 -144 -29l-20 98q90 35 188 35q103 0 157 -42.5t54 -120.5q0 -29 -11 -77l-79 -295h-117l18 70q-73 -81 -174 -81zM219 76q55 0 101.5 36.5t61.5 89.5l7 24
q-62 20 -128 20q-65 0 -102 -35q-26 -26 -26 -64q0 -32 23.5 -51.5t62.5 -19.5zM200 606l24 88h343l-24 -88h-343z" />
    <glyph glyph-name="Abreve" unicode="&#x102;" horiz-adv-x="763" 
d="M-50 0l497 705h118l119 -705h-126l-27 169h-331l-116 -169h-134zM275 278h241l-45 283zM523 766q-73 0 -110.5 35.5t-26.5 98.5h80q5 -50 75 -50q67 0 99 50h92q-23 -64 -79 -99t-130 -35z" />
    <glyph glyph-name="abreve" unicode="&#x103;" horiz-adv-x="583" 
d="M171 -11q-69 0 -114 40t-45 104q0 75 50 127q66 64 181 64q77 0 164 -26l3 9q6 26 6 44q0 80 -117 80q-72 0 -144 -29l-20 98q90 35 188 35q103 0 157 -42.5t54 -120.5q0 -29 -11 -77l-79 -295h-117l18 70q-73 -81 -174 -81zM219 76q55 0 101.5 36.5t61.5 89.5l7 24
q-62 20 -128 20q-65 0 -102 -35q-26 -26 -26 -64q0 -32 23.5 -51.5t62.5 -19.5zM379 593q-77 0 -114 40.5t-33 104.5h84q1 -27 18.5 -44t51.5 -17q66 0 105 61h86q-22 -65 -74 -105t-124 -40z" />
    <glyph glyph-name="Aogonek" unicode="&#x104;" horiz-adv-x="763" 
d="M671 -106l-15 -58q-19 -3 -37 -3q-107 3 -107 67q0 46 68 100h-22l-27 169h-331l-116 -169h-134l497 705h118l119 -705h-19q-55 -48 -55 -75q0 -30 61 -31zM275 278h241l-45 283z" />
    <glyph glyph-name="aogonek" unicode="&#x105;" horiz-adv-x="583" 
d="M435 -106l-15 -58q-20 -3 -37 -3q-107 3 -107 67q0 46 68 100h-17l18 70q-73 -81 -174 -81q-69 0 -114 40t-45 104q0 75 50 127q66 64 181 64q77 0 164 -26l3 9q6 26 6 44q0 80 -117 80q-72 0 -144 -29l-20 98q90 35 188 35q103 0 157 -42.5t54 -120.5q0 -29 -11 -77
l-79 -295h-15q-55 -48 -55 -75q0 -30 61 -31zM219 76q55 0 101.5 36.5t61.5 89.5l7 24q-62 20 -128 20q-65 0 -102 -35q-26 -26 -26 -64q0 -32 23.5 -51.5t62.5 -19.5z" />
    <glyph glyph-name="Cacute" unicode="&#x106;" horiz-adv-x="730" 
d="M391 -12q-138 0 -227 81t-89 217q0 84 33.5 162.5t93.5 138.5q125 125 296 125q187 0 273 -150l-102 -69q-34 52 -77 79t-108 27q-103 0 -187 -82q-94 -94 -94 -226q0 -86 53 -137.5t138 -51.5q55 0 97.5 19.5t87.5 59.5l81 -82q-114 -111 -269 -111zM470 768l152 145
l107 -48l-153 -97h-106z" />
    <glyph glyph-name="cacute" unicode="&#x107;" horiz-adv-x="561" 
d="M326 595l150 164l108 -49l-153 -115h-105zM286 -12q-104 0 -173 64.5t-69 170.5q0 130 93 223t219 93q146 0 214 -120l-94 -64q-24 38 -53.5 58.5t-76.5 20.5q-64 0 -116 -52q-65 -67 -65 -158q0 -60 36 -96t89 -36q68 0 135 59l64 -79q-92 -84 -203 -84z" />
    <glyph glyph-name="Cdotaccent" unicode="&#x10a;" horiz-adv-x="730" 
d="M462 768l31 112h128l-31 -112h-128zM391 -12q-138 0 -227 81t-89 217q0 84 33.5 162.5t93.5 138.5q125 125 296 125q187 0 273 -150l-102 -69q-34 52 -77 79t-108 27q-103 0 -187 -82q-94 -94 -94 -226q0 -86 53 -137.5t138 -51.5q55 0 97.5 19.5t87.5 59.5l81 -82
q-114 -111 -269 -111z" />
    <glyph glyph-name="cdotaccent" unicode="&#x10b;" horiz-adv-x="561" 
d="M286 -12q-104 0 -173 64.5t-69 170.5q0 130 93 223t219 93q146 0 214 -120l-94 -64q-24 38 -53.5 58.5t-76.5 20.5q-64 0 -116 -52q-65 -67 -65 -158q0 -60 36 -96t89 -36q68 0 135 59l64 -79q-92 -84 -203 -84zM317 594l33 120h125l-33 -120h-125z" />
    <glyph glyph-name="Ccaron" unicode="&#x10c;" horiz-adv-x="730" 
d="M391 -12q-138 0 -227 81t-89 217q0 84 33.5 162.5t93.5 138.5q125 125 296 125q187 0 273 -150l-102 -69q-34 52 -77 79t-108 27q-103 0 -187 -82q-94 -94 -94 -226q0 -86 53 -137.5t138 -51.5q55 0 97.5 19.5t87.5 59.5l81 -82q-114 -111 -269 -111zM747 903l-156 -135
h-115l-84 135h93l62 -57l93 57h107z" />
    <glyph glyph-name="ccaron" unicode="&#x10d;" horiz-adv-x="561" 
d="M303 595l-77 147h90l58 -67l97 67h100l-155 -147h-113zM286 -12q-104 0 -173 64.5t-69 170.5q0 130 93 223t219 93q146 0 214 -120l-94 -64q-24 38 -53.5 58.5t-76.5 20.5q-64 0 -116 -52q-65 -67 -65 -158q0 -60 36 -96t89 -36q68 0 135 59l64 -79q-92 -84 -203 -84z
" />
    <glyph glyph-name="Dcaron" unicode="&#x10e;" horiz-adv-x="775" 
d="M19 0l188 700h190q183 0 274 -91q76 -76 76 -204q0 -161 -113 -274q-131 -131 -364 -131h-251zM570 529q-59 59 -182 59h-87l-129 -476h113q161 0 256 95q78 78 78 193q0 80 -49 129zM704 893l-156 -135h-115l-84 135h93l62 -57l93 57h107z" />
    <glyph glyph-name="dcaron" unicode="&#x10f;" horiz-adv-x="668" 
d="M738 589l56 190h101v-3l-106 -187h-51zM400 0l19 70q-79 -81 -169 -81t-148 61.5t-58 164.5q0 142 96 238q86 86 198 86q121 0 178 -105l79 296h121l-195 -730h-121zM296 93q71 0 124 55q66 66 66 154q0 58 -37.5 95.5t-96.5 37.5q-67 0 -118 -51q-64 -64 -64 -161
q0 -60 34.5 -95t91.5 -35z" />
    <glyph glyph-name="Dcroat" unicode="&#x110;" horiz-adv-x="798" 
d="M41 297l30 110h80l79 293h190q183 0 274 -91q76 -76 76 -204q0 -161 -113 -274q-131 -131 -364 -131h-251l80 297h-81zM593 529q-59 59 -182 59h-87l-49 -181h169l-30 -110h-169l-50 -185h113q161 0 256 95q78 78 78 193q0 80 -49 129z" />
    <glyph glyph-name="dcroat" unicode="&#x111;" horiz-adv-x="668" 
d="M396 601l20 73h164l15 56h121l-15 -56h68l-19 -73h-69l-160 -601h-121l19 70q-79 -81 -169 -81t-148 61.5t-58 164.5q0 142 96 238q86 86 198 86q121 0 178 -105l44 167h-164zM296 93q71 0 124 55q66 66 66 154q0 58 -37.5 95.5t-96.5 37.5q-67 0 -118 -51
q-64 -64 -64 -161q0 -60 34.5 -95t91.5 -35z" />
    <glyph glyph-name="Emacron" unicode="&#x112;" horiz-adv-x="660" 
d="M301 769l24 90h359l-24 -90h-359zM19 0l188 700h514l-30 -110h-391l-49 -183h347l-30 -109h-346l-51 -188h397l-30 -110h-519z" />
    <glyph glyph-name="emacron" unicode="&#x113;" 
d="M543 222h-384q0 -62 35.5 -98.5t101.5 -36.5q68 0 135 51l58 -77q-87 -73 -205 -73q-110 0 -175 62.5t-65 168.5q0 63 25.5 123.5t71.5 106.5q90 90 214 90q99 0 155 -58t56 -147q0 -57 -23 -112zM224 606l24 88h343l-24 -88h-343zM224 388q-35 -35 -52 -86h274
q5 15 5 37q0 44 -26.5 72.5t-78.5 28.5q-70 0 -122 -52z" />
    <glyph glyph-name="Ebreve" unicode="&#x114;" horiz-adv-x="660" 
d="M477 756q-73 0 -110.5 35.5t-26.5 98.5h80q5 -50 75 -50q67 0 99 50h92q-23 -64 -79 -99t-130 -35zM19 0l188 700h514l-30 -110h-391l-49 -183h347l-30 -109h-346l-51 -188h397l-30 -110h-519z" />
    <glyph glyph-name="ebreve" unicode="&#x115;" 
d="M543 222h-384q0 -62 35.5 -98.5t101.5 -36.5q68 0 135 51l58 -77q-87 -73 -205 -73q-110 0 -175 62.5t-65 168.5q0 63 25.5 123.5t71.5 106.5q90 90 214 90q99 0 155 -58t56 -147q0 -57 -23 -112zM403 593q-77 0 -114 40.5t-33 104.5h84q1 -27 18.5 -44t51.5 -17
q66 0 105 61h86q-22 -65 -74 -105t-124 -40zM224 388q-35 -35 -52 -86h274q5 15 5 37q0 44 -26.5 72.5t-78.5 28.5q-70 0 -122 -52z" />
    <glyph glyph-name="Edotaccent" unicode="&#x116;" horiz-adv-x="660" 
d="M413 758l31 112h128l-31 -112h-128zM19 0l188 700h514l-30 -110h-391l-49 -183h347l-30 -109h-346l-51 -188h397l-30 -110h-519z" />
    <glyph glyph-name="edotaccent" unicode="&#x117;" 
d="M543 222h-384q0 -62 35.5 -98.5t101.5 -36.5q68 0 135 51l58 -77q-87 -73 -205 -73q-110 0 -175 62.5t-65 168.5q0 63 25.5 123.5t71.5 106.5q90 90 214 90q99 0 155 -58t56 -147q0 -57 -23 -112zM224 388q-35 -35 -52 -86h274q5 15 5 37q0 44 -26.5 72.5t-78.5 28.5
q-70 0 -122 -52zM331 594l33 120h125l-33 -120h-125z" />
    <glyph glyph-name="Eogonek" unicode="&#x118;" horiz-adv-x="660" 
d="M19 0l188 700h514l-30 -110h-391l-49 -183h347l-30 -109h-346l-51 -188h397l-30 -110h-21q-55 -48 -55 -75q0 -30 61 -31l-15 -58q-20 -3 -37 -3q-107 3 -107 67q0 46 68 100h-413z" />
    <glyph glyph-name="eogonek" unicode="&#x119;" 
d="M431 138l57 -76q-80 -60 -97 -79q-34 -33 -34 -58q0 -30 61 -31l-15 -58q-19 -3 -37 -3q-107 3 -107 67q0 41 52 90q-16 -2 -27 -2q-110 0 -175 62.5t-65 168.5q0 63 25.5 123.5t71.5 106.5q90 90 214 90q99 0 155 -58t56 -147q0 -57 -23 -112h-384q0 -62 35.5 -98.5
t101.5 -36.5q68 0 135 51zM224 388q-35 -35 -52 -86h274q5 15 5 37q0 44 -26.5 72.5t-78.5 28.5q-70 0 -122 -52z" />
    <glyph glyph-name="Ecaron" unicode="&#x11a;" horiz-adv-x="660" 
d="M698 893l-156 -135h-115l-84 135h93l62 -57l93 57h107zM19 0l188 700h514l-30 -110h-391l-49 -183h347l-30 -109h-346l-51 -188h397l-30 -110h-519z" />
    <glyph glyph-name="ecaron" unicode="&#x11b;" 
d="M543 222h-384q0 -62 35.5 -98.5t101.5 -36.5q68 0 135 51l58 -77q-87 -73 -205 -73q-110 0 -175 62.5t-65 168.5q0 63 25.5 123.5t71.5 106.5q90 90 214 90q99 0 155 -58t56 -147q0 -57 -23 -112zM224 388q-35 -35 -52 -86h274q5 15 5 37q0 44 -26.5 72.5t-78.5 28.5
q-70 0 -122 -52zM317 595l-77 147h90l58 -67l97 67h100l-155 -147h-113z" />
    <glyph glyph-name="Gbreve" unicode="&#x11e;" horiz-adv-x="782" 
d="M535 766q-73 0 -110.5 35.5t-26.5 98.5h80q5 -50 75 -50q67 0 99 50h92q-23 -64 -79 -99t-130 -35zM395 -12q-132 0 -226.5 79.5t-94.5 221.5q0 82 33.5 159t93.5 137q127 127 307 127q189 0 277 -124l-92 -78q-74 89 -194 89q-119 0 -205 -86q-91 -91 -91 -220
q0 -90 56 -141t144 -51q83 0 148 36l43 147h-179l29 107h298l-95 -335q-115 -68 -252 -68z" />
    <glyph glyph-name="gbreve" unicode="&#x11f;" horiz-adv-x="666" 
d="M246 -162q-163 0 -271 81l67 84q89 -67 197 -67q82 0 129 47q35 35 55 107l9 32q-86 -80 -181 -80q-83 0 -143 51.5t-60 139.5q0 128 92 220q86 86 200 86q68 0 108 -29t66 -77l25 95h121l-116 -436q-19 -71 -39 -110.5t-51 -69.5q-74 -74 -208 -74zM296 141q75 0 130 55
q54 54 54 122q0 51 -35 84.5t-93 33.5q-69 0 -123 -52q-55 -55 -55 -130q0 -54 34.5 -83.5t87.5 -29.5zM430 593q-77 0 -114 40.5t-33 104.5h84q1 -27 18.5 -44t51.5 -17q66 0 105 61h86q-22 -65 -74 -105t-124 -40z" />
    <glyph glyph-name="Gdotaccent" unicode="&#x120;" horiz-adv-x="782" 
d="M472 768l31 112h128l-31 -112h-128zM395 -12q-132 0 -226.5 79.5t-94.5 221.5q0 82 33.5 159t93.5 137q127 127 307 127q189 0 277 -124l-92 -78q-74 89 -194 89q-119 0 -205 -86q-91 -91 -91 -220q0 -90 56 -141t144 -51q83 0 148 36l43 147h-179l29 107h298l-95 -335
q-115 -68 -252 -68z" />
    <glyph glyph-name="gdotaccent" unicode="&#x121;" horiz-adv-x="666" 
d="M246 -162q-163 0 -271 81l67 84q89 -67 197 -67q82 0 129 47q35 35 55 107l9 32q-86 -80 -181 -80q-83 0 -143 51.5t-60 139.5q0 128 92 220q86 86 200 86q68 0 108 -29t66 -77l25 95h121l-116 -436q-19 -71 -39 -110.5t-51 -69.5q-74 -74 -208 -74zM296 141q75 0 130 55
q54 54 54 122q0 51 -35 84.5t-93 33.5q-69 0 -123 -52q-55 -55 -55 -130q0 -54 34.5 -83.5t87.5 -29.5zM357 594l33 120h125l-33 -120h-125z" />
    <glyph glyph-name="Gcommaaccent" unicode="&#x122;" horiz-adv-x="782" 
d="M220 -275l4 39q75 9 88 68h-55l28 101h118l-23 -86q-17 -62 -55.5 -90.5t-104.5 -31.5zM395 -12q-132 0 -226.5 79.5t-94.5 221.5q0 82 33.5 159t93.5 137q127 127 307 127q189 0 277 -124l-92 -78q-74 89 -194 89q-119 0 -205 -86q-91 -91 -91 -220q0 -90 56 -141
t144 -51q83 0 148 36l43 147h-179l29 107h298l-95 -335q-115 -68 -252 -68z" />
    <glyph glyph-name="gcommaaccent" unicode="&#x123;" horiz-adv-x="666" 
d="M538 802l-4 -39q-75 -9 -88 -68h55l-28 -101h-118l23 86q17 62 55.5 90.5t104.5 31.5zM246 -162q-163 0 -271 81l67 84q89 -67 197 -67q82 0 129 47q35 35 55 107l9 32q-86 -80 -181 -80q-83 0 -143 51.5t-60 139.5q0 128 92 220q86 86 200 86q68 0 108 -29t66 -77l25 95
h121l-116 -436q-19 -71 -39 -110.5t-51 -69.5q-74 -74 -208 -74zM296 141q75 0 130 55q54 54 54 122q0 51 -35 84.5t-93 33.5q-69 0 -123 -52q-55 -55 -55 -130q0 -54 34.5 -83.5t87.5 -29.5z" />
    <glyph glyph-name="Hbar" unicode="&#x126;" horiz-adv-x="756" 
d="M85 511l24 87h70l28 102h124l-28 -102h329l28 102h123l-28 -102h72l-24 -87h-71l-137 -511h-123l79 294h-329l-79 -294h-124l137 511h-71zM252 407h329l28 106h-329z" />
    <glyph glyph-name="hbar" unicode="&#x127;" horiz-adv-x="618" 
d="M97 601l19 73h69l15 56h121l-15 -56h164l-19 -73h-165l-37 -140q80 78 161 78q73 0 116.5 -42.5t43.5 -115.5q0 -31 -16 -93l-76 -288h-121l78 293q8 27 8 53q0 40 -24 61.5t-68 21.5q-50 0 -89.5 -36.5t-55.5 -95.5l-79 -297h-122l160 601h-68z" />
    <glyph glyph-name="Imacron" unicode="&#x12a;" horiz-adv-x="317" 
d="M26 0l188 700h124l-188 -700h-124zM115 769l24 90h359l-24 -90h-359z" />
    <glyph glyph-name="imacron" unicode="&#x12b;" horiz-adv-x="286" 
d="M12 0l142 528h121l-142 -528h-121zM64 606l24 88h343l-24 -88h-343z" />
    <glyph glyph-name="Ibreve" unicode="&#x12c;" horiz-adv-x="317" 
d="M26 0l188 700h124l-188 -700h-124zM291 756q-73 0 -110.5 35.5t-26.5 98.5h80q5 -50 75 -50q67 0 99 50h92q-23 -64 -79 -99t-130 -35z" />
    <glyph glyph-name="ibreve" unicode="&#x12d;" horiz-adv-x="286" 
d="M12 0l142 528h121l-142 -528h-121zM242 593q-77 0 -114 40.5t-33 104.5h84q1 -27 18.5 -44t51.5 -17q66 0 105 61h86q-22 -65 -74 -105t-124 -40z" />
    <glyph glyph-name="Iogonek" unicode="&#x12e;" horiz-adv-x="317" 
d="M26 0l188 700h124l-188 -700h-16q-55 -48 -55 -75q0 -30 61 -31l-15 -58q-19 -3 -37 -3q-107 3 -107 67q0 46 68 100h-23z" />
    <glyph glyph-name="iogonek" unicode="&#x12f;" horiz-adv-x="286" 
d="M12 0l142 528h121l-142 -528h-17q-55 -48 -55 -75q0 -30 61 -31l-15 -58q-20 -3 -37 -3q-107 3 -107 67q0 44 68 100h-19zM171 609l31 115h131l-32 -115h-130z" />
    <glyph glyph-name="Idotaccent" unicode="&#x130;" horiz-adv-x="317" 
d="M26 0l188 700h124l-188 -700h-124zM227 758l31 112h128l-31 -112h-128z" />
    <glyph glyph-name="dotlessi" unicode="&#x131;" horiz-adv-x="286" 
d="M12 0l142 528h121l-142 -528h-121z" />
    <glyph glyph-name="Kcommaaccent" unicode="&#x136;" horiz-adv-x="723" 
d="M176 -267l4 39q75 9 88 68h-55l28 101h118l-23 -86q-17 -62 -55.5 -90.5t-104.5 -31.5zM19 0l188 700h124l-95 -353l410 353h169l-356 -299l180 -401h-137l-141 328l-169 -142l-49 -186h-124z" />
    <glyph glyph-name="kcommaaccent" unicode="&#x137;" horiz-adv-x="582" 
d="M90 -272l4 39q75 9 88 68h-55l28 101h118l-23 -86q-17 -62 -55.5 -90.5t-104.5 -31.5zM5 0l196 730h122l-115 -427l270 225h160l-266 -214l127 -314h-136l-94 235l-102 -82l-40 -153h-122z" />
    <glyph glyph-name="Lacute" unicode="&#x139;" horiz-adv-x="618" 
d="M246 758l152 145l107 -48l-153 -97h-106zM19 0l188 700h124l-158 -588h368l-31 -112h-491z" />
    <glyph glyph-name="lacute" unicode="&#x13a;" horiz-adv-x="286" 
d="M232 775l152 145l107 -48l-153 -97h-106zM12 0l196 730h121l-196 -730h-121z" />
    <glyph glyph-name="Lcommaaccent" unicode="&#x13b;" horiz-adv-x="618" 
d="M117 -272l4 39q75 9 88 68h-55l28 101h118l-23 -86q-17 -62 -55.5 -90.5t-104.5 -31.5zM19 0l188 700h124l-158 -588h368l-31 -112h-491z" />
    <glyph glyph-name="lcommaaccent" unicode="&#x13c;" horiz-adv-x="286" 
d="M-62 -272l4 39q75 9 88 68h-55l28 101h118l-23 -86q-17 -62 -55.5 -90.5t-104.5 -31.5zM12 0l196 730h121l-196 -730h-121z" />
    <glyph glyph-name="Lcaron" unicode="&#x13d;" horiz-adv-x="618" 
d="M356 559l56 190h101v-3l-106 -187h-51zM19 0l188 700h124l-158 -588h368l-31 -112h-491z" />
    <glyph glyph-name="lcaron" unicode="&#x13e;" horiz-adv-x="286" 
d="M351 589l56 190h101v-3l-106 -187h-51zM12 0l196 730h121l-196 -730h-121z" />
    <glyph glyph-name="Ldot" unicode="&#x13f;" horiz-adv-x="624" 
d="M429 317l32 119h123l-33 -119h-122zM19 0l188 700h124l-158 -588h368l-31 -112h-491z" />
    <glyph glyph-name="ldot" unicode="&#x140;" horiz-adv-x="367" 
d="M289 319l30 112h106l-30 -112h-106zM12 0l196 730h121l-196 -730h-121z" />
    <glyph glyph-name="Lslash" unicode="&#x141;" horiz-adv-x="655" 
d="M50 256l31 114l79 22l83 308h124l-73 -271l217 61l-30 -114l-218 -61l-54 -203h368l-31 -112h-491l74 278z" />
    <glyph glyph-name="lslash" unicode="&#x142;" horiz-adv-x="344" 
d="M41 274l30 115l81 22l86 319h121l-76 -283l82 23l-31 -115l-82 -23l-89 -332h-121l79 296z" />
    <glyph glyph-name="Nacute" unicode="&#x143;" horiz-adv-x="786" 
d="M469 757l152 145l107 -48l-153 -97h-106zM19 0l188 700h114l237 -495l134 495h121l-188 -700h-103l-245 509l-136 -509h-122z" />
    <glyph glyph-name="nacute" unicode="&#x144;" horiz-adv-x="617" 
d="M338 595l150 164l108 -49l-153 -115h-105zM5 0l141 528h121l-18 -67q80 78 161 78q73 0 116.5 -42.5t43.5 -115.5q0 -31 -16 -93l-76 -288h-121l78 293q8 27 8 53q0 40 -24 61.5t-68 21.5q-50 0 -89.5 -36.5t-55.5 -95.5l-79 -297h-122z" />
    <glyph glyph-name="Ncommaaccent" unicode="&#x145;" horiz-adv-x="786" 
d="M188 -267l4 39q75 9 88 68h-55l28 101h118l-23 -86q-17 -62 -55.5 -90.5t-104.5 -31.5zM19 0l188 700h114l237 -495l134 495h121l-188 -700h-103l-245 509l-136 -509h-122z" />
    <glyph glyph-name="ncommaaccent" unicode="&#x146;" horiz-adv-x="617" 
d="M97 -272l4 39q75 9 88 68h-55l28 101h118l-23 -86q-17 -62 -55.5 -90.5t-104.5 -31.5zM5 0l141 528h121l-18 -67q80 78 161 78q73 0 116.5 -42.5t43.5 -115.5q0 -31 -16 -93l-76 -288h-121l78 293q8 27 8 53q0 40 -24 61.5t-68 21.5q-50 0 -89.5 -36.5t-55.5 -95.5
l-79 -297h-122z" />
    <glyph glyph-name="Ncaron" unicode="&#x147;" horiz-adv-x="786" 
d="M745 892l-156 -135h-115l-84 135h93l62 -57l93 57h107zM19 0l188 700h114l237 -495l134 495h121l-188 -700h-103l-245 509l-136 -509h-122z" />
    <glyph glyph-name="ncaron" unicode="&#x148;" horiz-adv-x="617" 
d="M315 595l-77 147h90l58 -67l97 67h100l-155 -147h-113zM5 0l141 528h121l-18 -67q80 78 161 78q73 0 116.5 -42.5t43.5 -115.5q0 -31 -16 -93l-76 -288h-121l78 293q8 27 8 53q0 40 -24 61.5t-68 21.5q-50 0 -89.5 -36.5t-55.5 -95.5l-79 -297h-122z" />
    <glyph glyph-name="Omacron" unicode="&#x14c;" horiz-adv-x="836" 
d="M367 779l24 90h359l-24 -90h-359zM491 712q140 0 227.5 -87.5t87.5 -219.5q0 -82 -33 -159.5t-92 -136.5q-119 -121 -291 -121q-139 0 -226.5 87.5t-87.5 219.5q0 82 33 160t92 136q119 121 290 121zM403 101q105 0 184 79q43 43 67 101t24 117q0 88 -53.5 144.5
t-145.5 56.5q-105 0 -184 -79q-43 -43 -67 -101t-24 -117q0 -89 53.5 -145t145.5 -56z" />
    <glyph glyph-name="omacron" unicode="&#x14d;" horiz-adv-x="646" 
d="M238 606l24 88h343l-24 -88h-343zM353 539q112 0 180 -68t68 -174q0 -126 -93 -217q-90 -92 -215 -92q-112 0 -180 67.5t-68 173.5q0 125 93 218q90 92 215 92zM300 93q68 0 117 51q30 29 47 70t17 80q0 66 -37 103t-98 37q-64 0 -117 -51q-30 -29 -47 -70t-17 -80
q0 -66 37 -103t98 -37z" />
    <glyph glyph-name="Obreve" unicode="&#x14e;" horiz-adv-x="836" 
d="M542 766q-73 0 -110.5 35.5t-26.5 98.5h80q5 -50 75 -50q67 0 99 50h92q-23 -64 -79 -99t-130 -35zM491 712q140 0 227.5 -87.5t87.5 -219.5q0 -82 -33 -159.5t-92 -136.5q-119 -121 -291 -121q-139 0 -226.5 87.5t-87.5 219.5q0 82 33 160t92 136q119 121 290 121z
M403 101q105 0 184 79q43 43 67 101t24 117q0 88 -53.5 144.5t-145.5 56.5q-105 0 -184 -79q-43 -43 -67 -101t-24 -117q0 -89 53.5 -145t145.5 -56z" />
    <glyph glyph-name="obreve" unicode="&#x14f;" horiz-adv-x="646" 
d="M353 539q112 0 180 -68t68 -174q0 -126 -93 -217q-90 -92 -215 -92q-112 0 -180 67.5t-68 173.5q0 125 93 218q90 92 215 92zM300 93q68 0 117 51q30 29 47 70t17 80q0 66 -37 103t-98 37q-64 0 -117 -51q-30 -29 -47 -70t-17 -80q0 -66 37 -103t98 -37zM417 593
q-77 0 -114 40.5t-33 104.5h84q1 -27 18.5 -44t51.5 -17q66 0 105 61h86q-22 -65 -74 -105t-124 -40z" />
    <glyph glyph-name="Ohungarumlaut" unicode="&#x150;" horiz-adv-x="836" 
d="M491 712q140 0 227.5 -87.5t87.5 -219.5q0 -82 -33 -159.5t-92 -136.5q-119 -121 -291 -121q-139 0 -226.5 87.5t-87.5 219.5q0 82 33 160t92 136q119 121 290 121zM403 101q105 0 184 79q43 43 67 101t24 117q0 88 -53.5 144.5t-145.5 56.5q-105 0 -184 -79
q-43 -43 -67 -101t-24 -117q0 -89 53.5 -145t145.5 -56zM380 768l152 145l104 -48l-154 -97h-102zM559 768l152 145l104 -48l-154 -97h-102z" />
    <glyph glyph-name="ohungarumlaut" unicode="&#x151;" horiz-adv-x="646" 
d="M226 595l149 164l93 -49l-152 -115h-90zM408 595l150 164l93 -49l-153 -115h-90zM353 539q112 0 180 -68t68 -174q0 -126 -93 -217q-90 -92 -215 -92q-112 0 -180 67.5t-68 173.5q0 125 93 218q90 92 215 92zM300 93q68 0 117 51q30 29 47 70t17 80q0 66 -37 103t-98 37
q-64 0 -117 -51q-30 -29 -47 -70t-17 -80q0 -66 37 -103t98 -37z" />
    <glyph glyph-name="OE" unicode="&#x152;" horiz-adv-x="1091" 
d="M424 0q-182 0 -277 95q-72 72 -72 200q0 163 113 274q131 131 363 131h601l-30 -110h-374l-48 -183h329l-30 -109h-329l-51 -188h380l-30 -110h-545zM251 171q59 -59 183 -59h63l128 476h-88q-162 0 -257 -95q-77 -77 -77 -193q0 -81 48 -129z" />
    <glyph glyph-name="oe" unicode="&#x153;" horiz-adv-x="1034" 
d="M977 222h-384q0 -62 35.5 -98.5t101.5 -36.5q67 0 136 51l57 -77q-84 -73 -204 -73q-74 0 -126.5 30t-76.5 85q-87 -115 -223 -115q-112 0 -180 67.5t-68 173.5q0 125 93 218q90 92 215 92q76 0 129.5 -33.5t77.5 -89.5q87 123 229 123q99 0 155 -58t56 -147
q0 -57 -23 -112zM300 93q68 0 117 51q30 29 47 70t17 80q0 66 -37 103t-98 37q-64 0 -117 -51q-30 -29 -47 -70t-17 -80q0 -66 37 -103t98 -37zM658 388q-35 -35 -52 -86h274q5 15 5 37q0 44 -26.5 72.5t-78.5 28.5q-70 0 -122 -52z" />
    <glyph glyph-name="Racute" unicode="&#x154;" horiz-adv-x="723" 
d="M474 0l-120 244h-146l-65 -244h-124l188 700h254q145 0 212 -68q51 -51 51 -132q0 -98 -64 -160q-60 -60 -175 -84l130 -256h-141zM238 353h158q114 0 165 53q35 35 35 84q0 37 -25 64q-36 34 -117 34h-153zM406 758l152 145l107 -48l-153 -97h-106z" />
    <glyph glyph-name="racute" unicode="&#x155;" horiz-adv-x="412" 
d="M243 595l150 164l108 -49l-153 -115h-105zM5 0l141 528h121l-31 -119q95 137 221 129l-34 -128h-7q-83 0 -146 -54t-91 -160l-52 -196h-122z" />
    <glyph glyph-name="Rcommaaccent" unicode="&#x156;" horiz-adv-x="723" 
d="M474 0l-120 244h-146l-65 -244h-124l188 700h254q145 0 212 -68q51 -51 51 -132q0 -98 -64 -160q-60 -60 -175 -84l130 -256h-141zM238 353h158q114 0 165 53q35 35 35 84q0 37 -25 64q-36 34 -117 34h-153zM156 -267l4 39q75 9 88 68h-55l28 101h118l-23 -86
q-17 -62 -55.5 -90.5t-104.5 -31.5z" />
    <glyph glyph-name="rcommaaccent" unicode="&#x157;" horiz-adv-x="412" 
d="M-62 -272l4 39q75 9 88 68h-55l28 101h118l-23 -86q-17 -62 -55.5 -90.5t-104.5 -31.5zM5 0l141 528h121l-31 -119q95 137 221 129l-34 -128h-7q-83 0 -146 -54t-91 -160l-52 -196h-122z" />
    <glyph glyph-name="Rcaron" unicode="&#x158;" horiz-adv-x="723" 
d="M474 0l-120 244h-146l-65 -244h-124l188 700h254q145 0 212 -68q51 -51 51 -132q0 -98 -64 -160q-60 -60 -175 -84l130 -256h-141zM238 353h158q114 0 165 53q35 35 35 84q0 37 -25 64q-36 34 -117 34h-153zM683 893l-156 -135h-115l-84 135h93l62 -57l93 57h107z" />
    <glyph glyph-name="rcaron" unicode="&#x159;" horiz-adv-x="412" 
d="M220 595l-77 147h90l58 -67l97 67h100l-155 -147h-113zM5 0l141 528h121l-31 -119q95 137 221 129l-34 -128h-7q-83 0 -146 -54t-91 -160l-52 -196h-122z" />
    <glyph glyph-name="Sacute" unicode="&#x15a;" horiz-adv-x="637" 
d="M296 -10q-198 0 -297 131l93 77q87 -99 211 -99q59 0 97 27t38 70q0 32 -27.5 54.5t-101.5 51.5q-90 36 -135 78t-45 110q0 84 58 142q78 78 211 78q162 0 257 -105l-86 -84q-82 80 -180 80q-59 0 -94.5 -27.5t-35.5 -64.5q0 -33 28.5 -54.5t107.5 -52.5
q88 -34 131 -76.5t43 -111.5q0 -84 -61 -145q-79 -79 -212 -79zM381 768l152 145l107 -48l-153 -97h-106z" />
    <glyph glyph-name="sacute" unicode="&#x15b;" horiz-adv-x="499" 
d="M273 595l150 164l108 -49l-153 -115h-105zM217 -12q-63 0 -126 24.5t-108 70.5l73 74q74 -74 171 -74q36 0 60 17t24 46q0 19 -18 34t-59 32q-78 32 -115 63.5t-37 87.5q0 76 57 126t150 50q58 0 113 -22t90 -53l-67 -78q-73 58 -145 58q-38 0 -59.5 -17t-21.5 -43
q0 -20 19 -35t65 -34q71 -30 108 -62.5t37 -85.5q0 -81 -59.5 -130t-151.5 -49z" />
    <glyph glyph-name="Scedilla" unicode="&#x15e;" horiz-adv-x="637" 
d="M186 -166l-93 45l112 119q-133 24 -206 123l93 77q87 -99 211 -99q59 0 97 27t38 70q0 32 -27.5 54.5t-101.5 51.5q-90 36 -135 78t-45 110q0 84 58 142q78 78 211 78q162 0 257 -105l-86 -84q-82 80 -180 80q-59 0 -94.5 -27.5t-35.5 -64.5q0 -33 28.5 -54.5
t107.5 -52.5q88 -34 131 -76.5t43 -111.5q0 -84 -61 -145q-79 -79 -212 -79h-2z" />
    <glyph glyph-name="scedilla" unicode="&#x15f;" horiz-adv-x="499" 
d="M117 -166l-93 45l112 119q-90 21 -153 85l73 74q74 -74 171 -74q36 0 60 17t24 46q0 19 -18 34t-59 32q-78 32 -115 63.5t-37 87.5q0 76 57 126t150 50q58 0 113 -22t90 -53l-67 -78q-73 58 -145 58q-38 0 -59.5 -17t-21.5 -43q0 -20 19 -35t65 -34q71 -30 108 -62.5
t37 -85.5q0 -79 -57.5 -128t-147.5 -51z" />
    <glyph glyph-name="Scaron" unicode="&#x160;" horiz-adv-x="637" 
d="M296 -10q-198 0 -297 131l93 77q87 -99 211 -99q59 0 97 27t38 70q0 32 -27.5 54.5t-101.5 51.5q-90 36 -135 78t-45 110q0 84 58 142q78 78 211 78q162 0 257 -105l-86 -84q-82 80 -180 80q-59 0 -94.5 -27.5t-35.5 -64.5q0 -33 28.5 -54.5t107.5 -52.5
q88 -34 131 -76.5t43 -111.5q0 -84 -61 -145q-79 -79 -212 -79zM658 903l-156 -135h-115l-84 135h93l62 -57l93 57h107z" />
    <glyph glyph-name="scaron" unicode="&#x161;" horiz-adv-x="499" 
d="M250 595l-77 147h90l58 -67l97 67h100l-155 -147h-113zM217 -12q-63 0 -126 24.5t-108 70.5l73 74q74 -74 171 -74q36 0 60 17t24 46q0 19 -18 34t-59 32q-78 32 -115 63.5t-37 87.5q0 76 57 126t150 50q58 0 113 -22t90 -53l-67 -78q-73 58 -145 58q-38 0 -59.5 -17
t-21.5 -43q0 -20 19 -35t65 -34q71 -30 108 -62.5t37 -85.5q0 -81 -59.5 -130t-151.5 -49z" />
    <glyph glyph-name="Tcommaaccent" unicode="&#x162;" horiz-adv-x="619" 
d="M100 -272l4 39q75 9 88 68h-55l28 101h118l-23 -86q-17 -62 -55.5 -90.5t-104.5 -31.5zM174 0l158 586h-223l31 114h568l-31 -114h-222l-158 -586h-123z" />
    <glyph glyph-name="tcommaaccent" unicode="&#x163;" horiz-adv-x="409" 
d="M26 -272l4 39q75 9 88 68h-55l28 101h118l-23 -86q-17 -62 -55.5 -90.5t-104.5 -31.5zM196 -9q-63 0 -97.5 28.5t-34.5 75.5q0 31 9 61l71 268h-67l28 104h67l39 145h121l-39 -145h141l-28 -104h-141l-68 -255q-4 -20 -4 -30q0 -41 53 -41q37 0 77 17l-28 -105
q-42 -19 -99 -19z" />
    <glyph glyph-name="Tcaron" unicode="&#x164;" horiz-adv-x="619" 
d="M659 893l-156 -135h-115l-84 135h93l62 -57l93 57h107zM174 0l158 586h-223l31 114h568l-31 -114h-222l-158 -586h-123z" />
    <glyph glyph-name="tcaron" unicode="&#x165;" horiz-adv-x="409" 
d="M374 589l56 190h101v-3l-106 -187h-51zM196 -9q-63 0 -97.5 28.5t-34.5 75.5q0 31 9 61l71 268h-67l28 104h67l39 145h121l-39 -145h141l-28 -104h-141l-68 -255q-4 -20 -4 -30q0 -41 53 -41q37 0 77 17l-28 -105q-42 -19 -99 -19z" />
    <glyph glyph-name="Umacron" unicode="&#x16a;" horiz-adv-x="762" 
d="M329 768l24 90h359l-24 -90h-359zM345 -11q-122 0 -190.5 62t-68.5 169q0 56 16 111l98 369h124l-104 -386q-10 -38 -10 -77q0 -60 38 -97t109 -37q79 0 131 52q53 53 77 147l107 398h123l-112 -417q-36 -134 -109 -207q-87 -87 -229 -87z" />
    <glyph glyph-name="umacron" unicode="&#x16b;" horiz-adv-x="618" 
d="M209 -11q-74 0 -117.5 42.5t-43.5 115.5q0 31 16 93l77 288h121l-79 -293q-7 -28 -7 -53q0 -40 24 -61.5t67 -21.5q50 0 89.5 36.5t55.5 95.5l80 297h121l-141 -528h-121l18 68q-79 -79 -160 -79zM222 606l24 88h343l-24 -88h-343z" />
    <glyph glyph-name="Ubreve" unicode="&#x16c;" horiz-adv-x="762" 
d="M502 748q-73 0 -110.5 35.5t-26.5 98.5h80q5 -50 75 -50q67 0 99 50h92q-23 -64 -79 -99t-130 -35zM345 -11q-122 0 -190.5 62t-68.5 169q0 56 16 111l98 369h124l-104 -386q-10 -38 -10 -77q0 -60 38 -97t109 -37q79 0 131 52q53 53 77 147l107 398h123l-112 -417
q-36 -134 -109 -207q-87 -87 -229 -87z" />
    <glyph glyph-name="ubreve" unicode="&#x16d;" horiz-adv-x="618" 
d="M209 -11q-74 0 -117.5 42.5t-43.5 115.5q0 31 16 93l77 288h121l-79 -293q-7 -28 -7 -53q0 -40 24 -61.5t67 -21.5q50 0 89.5 36.5t55.5 95.5l80 297h121l-141 -528h-121l18 68q-79 -79 -160 -79zM401 593q-77 0 -114 40.5t-33 104.5h84q1 -27 18.5 -44t51.5 -17
q66 0 105 61h86q-22 -65 -74 -105t-124 -40z" />
    <glyph glyph-name="Uring" unicode="&#x16e;" horiz-adv-x="762" 
d="M345 -11q-122 0 -190.5 62t-68.5 169q0 56 16 111l98 369h124l-104 -386q-10 -38 -10 -77q0 -60 38 -97t109 -37q79 0 131 52q53 53 77 147l107 398h123l-112 -417q-36 -134 -109 -207q-87 -87 -229 -87zM538 945q46 0 76.5 -27t30.5 -66q0 -50 -36.5 -84.5t-95.5 -34.5
q-46 0 -77 27t-31 66q0 50 37 84.5t96 34.5zM517 780q31 0 52.5 20.5t21.5 46.5q0 23 -16 37t-41 14q-32 0 -53 -20t-21 -47q0 -23 15.5 -37t41.5 -14z" />
    <glyph glyph-name="uring" unicode="&#x16f;" horiz-adv-x="618" 
d="M531 706q0 -50 -37 -87.5t-89 -37.5q-47 0 -77 28.5t-30 70.5q0 50 37 87.5t89 37.5q48 0 77.5 -28.5t29.5 -70.5zM350 684q0 -26 15.5 -42t41.5 -16q31 0 52 23t21 53q0 26 -16 42t-42 16q-30 0 -51 -23.5t-21 -52.5zM209 -11q-74 0 -117.5 42.5t-43.5 115.5q0 31 16 93
l77 288h121l-79 -293q-7 -28 -7 -53q0 -40 24 -61.5t67 -21.5q50 0 89.5 36.5t55.5 95.5l80 297h121l-141 -528h-121l18 68q-79 -79 -160 -79z" />
    <glyph glyph-name="Uhungarumlaut" unicode="&#x170;" horiz-adv-x="762" 
d="M345 -11q-122 0 -190.5 62t-68.5 169q0 56 16 111l98 369h124l-104 -386q-10 -38 -10 -77q0 -60 38 -97t109 -37q79 0 131 52q53 53 77 147l107 398h123l-112 -417q-36 -134 -109 -207q-87 -87 -229 -87zM342 757l152 145l104 -48l-154 -97h-102zM521 757l152 145
l104 -48l-154 -97h-102z" />
    <glyph glyph-name="uhungarumlaut" unicode="&#x171;" horiz-adv-x="618" 
d="M209 -11q-74 0 -117.5 42.5t-43.5 115.5q0 31 16 93l77 288h121l-79 -293q-7 -28 -7 -53q0 -40 24 -61.5t67 -21.5q50 0 89.5 36.5t55.5 95.5l80 297h121l-141 -528h-121l18 68q-79 -79 -160 -79zM211 595l149 164l93 -49l-152 -115h-90zM393 595l150 164l93 -49
l-153 -115h-90z" />
    <glyph glyph-name="Uogonek" unicode="&#x172;" horiz-adv-x="762" 
d="M371 -106l-15 -58q-20 -3 -37 -3q-107 3 -107 67q0 44 62 96q-90 16 -139 75t-49 149q0 56 16 111l98 369h124l-104 -386q-10 -38 -10 -77q0 -60 38 -97t109 -37q79 0 131 52q53 53 77 147l107 398h123l-112 -417q-36 -134 -109 -207q-84 -84 -222 -87q-42 -39 -42 -64
q0 -30 61 -31z" />
    <glyph glyph-name="uogonek" unicode="&#x173;" horiz-adv-x="618" 
d="M209 -11q-74 0 -117.5 42.5t-43.5 115.5q0 31 16 93l77 288h121l-79 -293q-7 -28 -7 -53q0 -40 24 -61.5t67 -21.5q50 0 89.5 36.5t55.5 95.5l80 297h121l-141 -528h-16q-55 -48 -55 -75q0 -30 61 -31l-15 -58q-20 -3 -37 -3q-107 3 -107 67q0 46 68 100h-20l18 68
q-79 -79 -160 -79z" />
    <glyph glyph-name="Wcircumflex" unicode="&#x174;" horiz-adv-x="1098" 
d="M191 -5l-55 705h128l29 -519l309 521h104l34 -521l306 519h140l-433 -705h-113l-36 497l-302 -497h-111zM483 758l157 135h114l85 -135h-94l-61 58l-93 -58h-108z" />
    <glyph glyph-name="wcircumflex" unicode="&#x175;" horiz-adv-x="853" 
d="M330 595l155 147h113l77 -147h-90l-59 67l-96 -67h-100zM121 -4l-29 532h123l10 -360l214 362h103l20 -363l206 361h122l-316 -532h-109l-21 361l-216 -361h-107z" />
    <glyph glyph-name="Ycircumflex" unicode="&#x176;" horiz-adv-x="655" 
d="M189 0l74 278l-156 422h137l105 -316l277 316h152l-395 -435l-71 -265h-123zM259 757l157 135h114l85 -135h-94l-61 58l-93 -58h-108z" />
    <glyph glyph-name="ycircumflex" unicode="&#x177;" horiz-adv-x="585" 
d="M168 -2l-77 530h124l44 -391l233 391h132l-341 -543q-53 -80 -103 -114t-114 -34q-68 0 -120 36l64 89q32 -23 68 -23q25 0 45 13t45 46zM187 595l155 147h113l77 -147h-90l-59 67l-96 -67h-100z" />
    <glyph glyph-name="Ydieresis" unicode="&#x178;" horiz-adv-x="655" 
d="M189 0l74 278l-156 422h137l105 -316l277 316h152l-395 -435l-71 -265h-123zM280 757l31 112h124l-31 -112h-124zM485 757l31 112h124l-31 -112h-124z" />
    <glyph glyph-name="Zacute" unicode="&#x179;" horiz-adv-x="681" 
d="M-19 0l24 91l535 500h-387l30 109h557l-25 -91l-535 -500h404l-29 -109h-574zM401 758l152 145l107 -48l-153 -97h-106z" />
    <glyph glyph-name="zacute" unicode="&#x17a;" horiz-adv-x="554" 
d="M296 595l150 164l108 -49l-153 -115h-105zM-24 0l23 83l388 346h-285l26 99h445l-22 -83l-389 -346h299l-26 -99h-459z" />
    <glyph glyph-name="Zdotaccent" unicode="&#x17b;" horiz-adv-x="681" 
d="M393 758l31 112h128l-31 -112h-128zM-19 0l24 91l535 500h-387l30 109h557l-25 -91l-535 -500h404l-29 -109h-574z" />
    <glyph glyph-name="zdotaccent" unicode="&#x17c;" horiz-adv-x="554" 
d="M-24 0l23 83l388 346h-285l26 99h445l-22 -83l-389 -346h299l-26 -99h-459zM286 594l33 120h125l-33 -120h-125z" />
    <glyph glyph-name="Zcaron" unicode="&#x17d;" horiz-adv-x="681" 
d="M678 893l-156 -135h-115l-84 135h93l62 -57l93 57h107zM-19 0l24 91l535 500h-387l30 109h557l-25 -91l-535 -500h404l-29 -109h-574z" />
    <glyph glyph-name="zcaron" unicode="&#x17e;" horiz-adv-x="554" 
d="M273 595l-77 147h90l58 -67l97 67h100l-155 -147h-113zM-24 0l23 83l388 346h-285l26 99h445l-22 -83l-389 -346h299l-26 -99h-459z" />
    <glyph glyph-name="florin" unicode="&#x192;" horiz-adv-x="538" 
d="M53 -9q-40 0 -80 8l27 99q24 -7 47 -7q52 0 86 76l83 189h-82l27 101h100l45 100q65 152 196 152q66 0 110 -18l-27 -100q-35 16 -76 16q-62 0 -100 -84l-29 -66h133l-28 -101h-150l-99 -225q-62 -140 -183 -140z" />
    <glyph glyph-name="Aringacute" unicode="&#x1fa;" horiz-adv-x="763" 
d="M-50 0l472 670q-25 27 -25 62q0 50 37 84.5t96 34.5q46 0 76.5 -27t30.5 -66q0 -69 -63 -103l110 -655h-126l-27 169h-331l-116 -169h-134zM275 278h241l-45 283zM492 879l152 129l106 -49l-152 -80h-106zM509 686q31 0 52.5 20.5t21.5 46.5q0 23 -16 37t-41 14
q-32 0 -53 -20t-21 -47q0 -23 15.5 -37t41.5 -14z" />
    <glyph glyph-name="aringacute" unicode="&#x1fb;" horiz-adv-x="583" 
d="M388 849l147 138l105 -49l-151 -89h-101zM171 -11q-69 0 -114 40t-45 104q0 75 50 127q66 64 181 64q77 0 164 -26l3 9q6 26 6 44q0 80 -117 80q-72 0 -144 -29l-20 98q90 35 188 35q103 0 157 -42.5t54 -120.5q0 -29 -11 -77l-79 -295h-117l18 70q-73 -81 -174 -81z
M219 76q55 0 101.5 36.5t61.5 89.5l7 24q-62 20 -128 20q-65 0 -102 -35q-26 -26 -26 -64q0 -32 23.5 -51.5t62.5 -19.5zM516 718q0 -50 -37 -87.5t-89 -37.5q-47 0 -77 28.5t-30 70.5q0 50 37 87.5t89 37.5q48 0 77.5 -28.5t29.5 -70.5zM335 696q0 -26 15.5 -42t41.5 -16
q31 0 52 23t21 53q0 26 -16 42t-42 16q-30 0 -51 -23.5t-21 -52.5z" />
    <glyph glyph-name="AEacute" unicode="&#x1fc;" horiz-adv-x="1056" 
d="M678 758l152 145l107 -48l-153 -97h-106zM-52 0l579 700h590l-30 -110h-374l-49 -183h330l-30 -109h-329l-51 -188h380l-30 -110h-502l46 169h-256l-138 -169h-136zM311 278h196l84 315h-21z" />
    <glyph glyph-name="aeacute" unicode="&#x1fd;" horiz-adv-x="948" 
d="M633 -12q-71 0 -123.5 28.5t-80.5 81.5q-104 -109 -246 -109q-78 0 -124.5 39t-46.5 105q0 75 50 127q66 64 181 64q77 0 164 -26l3 9q6 26 6 44q0 80 -117 80q-72 0 -144 -29l-20 98q90 35 188 35q142 0 181 -92q86 96 203 96q96 0 151.5 -58t55.5 -147q0 -57 -23 -112
h-384q0 -62 35.5 -98.5t101.5 -36.5q67 0 136 51l57 -77q-84 -73 -204 -73zM227 76q98 0 180 85q-6 26 -4 59q-67 26 -142 26q-65 0 -102 -35q-26 -26 -26 -64q0 -32 25 -51.5t69 -19.5zM572 388q-35 -35 -52 -86h275q4 18 4 37q0 44 -26 72.5t-79 28.5q-70 0 -122 -52z
M487 595l150 164l108 -49l-153 -115h-105z" />
    <glyph glyph-name="Oslashacute" unicode="&#x1fe;" horiz-adv-x="836" 
d="M491 712q128 0 215 -76l78 69h124l-148 -133q46 -75 46 -167q0 -82 -33 -159.5t-92 -136.5q-119 -121 -291 -121q-130 0 -215 76l-78 -69h-123l148 132q-46 74 -46 168q0 82 33 160t92 136q119 121 290 121zM402 96q106 0 187 81q43 43 68 102.5t25 119.5q0 50 -19 94
l-395 -353q52 -44 134 -44zM200 301q0 -53 18 -95l395 353q-52 44 -134 44q-106 0 -186 -80q-44 -43 -68.5 -102t-24.5 -120zM482 768l152 145l107 -48l-153 -97h-106z" />
    <glyph glyph-name="oslashacute" unicode="&#x1ff;" horiz-adv-x="646" 
d="M353 539q100 0 168 -57l57 51h113l-122 -109q32 -55 32 -127q0 -126 -93 -217q-90 -92 -215 -92q-103 0 -168 56l-57 -50h-113l122 108q-32 55 -32 127q0 125 93 218q90 92 215 92zM349 438q-69 0 -123 -54q-65 -63 -65 -151q0 -35 7 -57l268 236q-35 26 -87 26zM485 294
q0 30 -8 56l-267 -236q32 -25 87 -25q69 0 123 54q65 63 65 151zM349 595l150 164l108 -49l-153 -115h-105z" />
    <glyph glyph-name="Scommaaccent" unicode="&#x218;" horiz-adv-x="637" 
d="M109 -275l4 39q75 9 88 68h-55l28 101h118l-23 -86q-17 -62 -55.5 -90.5t-104.5 -31.5zM296 -10q-198 0 -297 131l93 77q87 -99 211 -99q59 0 97 27t38 70q0 32 -27.5 54.5t-101.5 51.5q-90 36 -135 78t-45 110q0 84 58 142q78 78 211 78q162 0 257 -105l-86 -84
q-82 80 -180 80q-59 0 -94.5 -27.5t-35.5 -64.5q0 -33 28.5 -54.5t107.5 -52.5q88 -34 131 -76.5t43 -111.5q0 -84 -61 -145q-79 -79 -212 -79z" />
    <glyph glyph-name="scommaaccent" unicode="&#x219;" horiz-adv-x="499" 
d="M39 -272l4 39q75 9 88 68h-55l28 101h118l-23 -86q-17 -62 -55.5 -90.5t-104.5 -31.5zM217 -12q-63 0 -126 24.5t-108 70.5l73 74q74 -74 171 -74q36 0 60 17t24 46q0 19 -18 34t-59 32q-78 32 -115 63.5t-37 87.5q0 76 57 126t150 50q58 0 113 -22t90 -53l-67 -78
q-73 58 -145 58q-38 0 -59.5 -17t-21.5 -43q0 -20 19 -35t65 -34q71 -30 108 -62.5t37 -85.5q0 -81 -59.5 -130t-151.5 -49z" />
    <glyph glyph-name="schwa" unicode="&#x259;" 
d="M33 194q0 57 23 112h384q0 62 -35.5 98.5t-101.5 36.5q-67 0 -135 -51l-58 77q87 73 205 73q110 0 175 -62.5t65 -168.5q0 -63 -25.5 -123.5t-71.5 -106.5q-90 -90 -214 -90q-99 0 -155 58t-56 147zM375 140q36 36 52 86h-274q-5 -15 -5 -37q0 -44 26.5 -72.5t78.5 -28.5
q70 0 122 52z" />
    <glyph glyph-name="circumflex" unicode="&#x2c6;" horiz-adv-x="500" 
d="M167 595l155 147h113l77 -147h-90l-59 67l-96 -67h-100z" />
    <glyph glyph-name="caron" unicode="&#x2c7;" horiz-adv-x="500" 
d="M280 595l-77 147h90l58 -67l97 67h100l-155 -147h-113z" />
    <glyph glyph-name="breve" unicode="&#x2d8;" horiz-adv-x="500" 
d="M350 593q-77 0 -114 40.5t-33 104.5h84q1 -27 18.5 -44t51.5 -17q66 0 105 61h86q-22 -65 -74 -105t-124 -40z" />
    <glyph glyph-name="dotaccent" unicode="&#x2d9;" horiz-adv-x="500" 
d="M277 594l33 120h125l-33 -120h-125z" />
    <glyph glyph-name="ring" unicode="&#x2da;" horiz-adv-x="500" 
d="M485 718q0 -50 -37 -87.5t-89 -37.5q-47 0 -77 28.5t-30 70.5q0 50 37 87.5t89 37.5q48 0 77.5 -28.5t29.5 -70.5zM304 696q0 -26 15.5 -42t41.5 -16q31 0 52 23t21 53q0 26 -16 42t-42 16q-30 0 -51 -23.5t-21 -52.5z" />
    <glyph glyph-name="ogonek" unicode="&#x2db;" horiz-adv-x="500" 
d="M248 -106l-15 -58q-19 -3 -37 -3q-107 3 -107 67q0 49 84 112l77 -5q-63 -54 -63 -82q0 -30 61 -31z" />
    <glyph glyph-name="tilde" unicode="&#x2dc;" horiz-adv-x="500" 
d="M486 740l67 -22q-29 -64 -58 -93.5t-72 -29.5q-30 0 -80 22q-42 18 -56 18q-21 0 -34.5 -11.5t-29.5 -38.5l-67 22q28 64 57 93.5t73 29.5q29 0 79 -22q44 -18 57 -18q21 0 34 11t30 39z" />
    <glyph glyph-name="hungarumlaut" unicode="&#x2dd;" horiz-adv-x="500" 
d="M144 595l149 164l93 -49l-152 -115h-90zM326 595l150 164l93 -49l-153 -115h-90z" />
    <glyph glyph-name="commaaccent" unicode="&#x326;" horiz-adv-x="500" 
d="M41 -272l4 39q75 9 88 68h-55l28 101h118l-23 -86q-17 -62 -55.5 -90.5t-104.5 -31.5z" />
    <glyph glyph-name="baht" unicode="&#xe3f;" horiz-adv-x="641" 
d="M5 0l188 700h234h5l31 80h81l-34 -89q70 -16 106 -58t36 -101q0 -71 -45 -117.5t-126 -64.5q101 -37 101 -139q0 -95 -79 -153t-219 -58h-40l-45 -118h-81l44 118h-157zM469 218q0 87 -112 90l-79 -206h30q75 0 118 31t43 85zM222 398h99l77 200h-123zM539 512
q0 69 -73 82l-75 -196q70 2 109 31.5t39 82.5zM143 102h64l79 206h-89z" />
    <glyph glyph-name="Wgrave" unicode="&#x1e80;" horiz-adv-x="1098" 
d="M617 758l-101 97l112 48l73 -145h-84zM191 -5l-55 705h128l29 -519l309 521h104l34 -521l306 519h140l-433 -705h-113l-36 497l-302 -497h-111z" />
    <glyph glyph-name="wgrave" unicode="&#x1e81;" horiz-adv-x="853" 
d="M121 -4l-29 532h123l10 -360l214 362h103l20 -363l206 361h122l-316 -532h-109l-21 361l-216 -361h-107zM457 595l-91 115l113 49l61 -164h-83z" />
    <glyph glyph-name="Wacute" unicode="&#x1e82;" horiz-adv-x="1098" 
d="M614 758l152 145l107 -48l-153 -97h-106zM191 -5l-55 705h128l29 -519l309 521h104l34 -521l306 519h140l-433 -705h-113l-36 497l-302 -497h-111z" />
    <glyph glyph-name="wacute" unicode="&#x1e83;" horiz-adv-x="853" 
d="M454 595l150 164l108 -49l-153 -115h-105zM121 -4l-29 532h123l10 -360l214 362h103l20 -363l206 361h122l-316 -532h-109l-21 361l-216 -361h-107z" />
    <glyph glyph-name="Wdieresis" unicode="&#x1e84;" horiz-adv-x="1098" 
d="M505 758l31 112h124l-31 -112h-124zM710 758l31 112h124l-31 -112h-124zM191 -5l-55 705h128l29 -519l309 521h104l34 -521l306 519h140l-433 -705h-113l-36 497l-302 -497h-111z" />
    <glyph glyph-name="wdieresis" unicode="&#x1e85;" horiz-adv-x="853" 
d="M347 595l32 119h123l-32 -119h-123zM546 595l32 119h123l-33 -119h-122zM121 -4l-29 532h123l10 -360l214 362h103l20 -363l206 361h122l-316 -532h-109l-21 361l-216 -361h-107z" />
    <glyph glyph-name="Ygrave" unicode="&#x1ef2;" horiz-adv-x="655" 
d="M189 0l74 278l-156 422h137l105 -316l277 316h152l-395 -435l-71 -265h-123zM392 757l-101 97l112 48l73 -145h-84z" />
    <glyph glyph-name="ygrave" unicode="&#x1ef3;" horiz-adv-x="585" 
d="M168 -2l-77 530h124l44 -391l233 391h132l-341 -543q-53 -80 -103 -114t-114 -34q-68 0 -120 36l64 89q32 -23 68 -23q25 0 45 13t45 46zM317 595l-91 115l113 49l61 -164h-83z" />
    <glyph glyph-name="enspace" unicode="&#x2002;" horiz-adv-x="500" 
 />
    <glyph glyph-name="emspace" unicode="&#x2003;" horiz-adv-x="1000" 
 />
    <glyph glyph-name="threeperemspace" unicode="&#x2004;" horiz-adv-x="333" 
 />
    <glyph glyph-name="fourperemspace" unicode="&#x2005;" horiz-adv-x="250" 
 />
    <glyph glyph-name="figurespace" unicode="&#x2007;" 
 />
    <glyph glyph-name="thinspace" unicode="&#x2009;" horiz-adv-x="133" 
 />
    <glyph glyph-name="hairspace" unicode="&#x200a;" horiz-adv-x="75" 
 />
    <glyph glyph-name="endash" unicode="&#x2013;" horiz-adv-x="530" 
d="M53 249l31 115h416l-31 -115h-416z" />
    <glyph glyph-name="emdash" unicode="&#x2014;" horiz-adv-x="900" 
d="M53 249l31 115h786l-31 -115h-786z" />
    <glyph glyph-name="quoteleft" unicode="&#x2018;" horiz-adv-x="293" 
d="M109 423l31 116q23 84 69 122.5t125 43.5l9 -51q-101 -14 -115 -94h51l-37 -137h-133z" />
    <glyph glyph-name="quoteright" unicode="&#x2019;" horiz-adv-x="293" 
d="M99 417l-9 52q101 14 115 94h-51l37 137h133l-31 -117q-23 -83 -69 -121.5t-125 -44.5z" />
    <glyph glyph-name="quotesinglbase" unicode="&#x201a;" horiz-adv-x="293" 
d="M-45 -145l-9 51q101 14 115 94h-52l37 138h133l-31 -117q-22 -84 -68 -122t-125 -44z" />
    <glyph glyph-name="quotedblleft" unicode="&#x201c;" horiz-adv-x="524" 
d="M110 422l31 117q22 83 68 121.5t125 44.5l9 -52q-101 -14 -115 -93h52l-37 -138h-133zM341 422l32 117q22 83 68 121.5t125 44.5l9 -52q-101 -14 -115 -93h52l-37 -138h-134z" />
    <glyph glyph-name="quotedblright" unicode="&#x201d;" horiz-adv-x="524" 
d="M100 417l-9 52q101 14 115 94h-52l37 137h133l-31 -117q-22 -83 -68 -121.5t-125 -44.5zM332 417l-10 52q101 14 115 94h-51l37 137h133l-31 -117q-23 -83 -68.5 -121.5t-124.5 -44.5z" />
    <glyph glyph-name="quotedblbase" unicode="&#x201e;" horiz-adv-x="525" 
d="M-45 -145l-9 51q101 14 115 94h-52l37 138h133l-31 -117q-22 -84 -68 -122t-125 -44zM187 -145l-9 51q101 14 115 94h-52l37 138h133l-31 -117q-22 -84 -68 -122t-125 -44z" />
    <glyph glyph-name="dagger" unicode="&#x2020;" horiz-adv-x="411" 
d="M157 238l82 275l-124 -9l20 71l118 -9l25 134h79l-47 -134l123 9l-20 -71l-119 9l-65 -275h-72z" />
    <glyph glyph-name="daggerdbl" unicode="&#x2021;" horiz-adv-x="417" 
d="M93 0l47 134l-123 -9l19 71l118 -9l36 163l51 163l-123 -9l20 71l118 -9l25 134h79l-47 -134l123 9l-20 -71l-118 9l-36 -163l-52 -163l124 9l-19 -71l-118 9l-25 -134h-79z" />
    <glyph glyph-name="bullet" unicode="&#x2022;" horiz-adv-x="491" 
d="M290 499q52 0 82 -31t30 -83q0 -79 -54 -133q-47 -45 -106 -45q-52 0 -82.5 30.5t-30.5 83.5q0 77 55 132q46 46 106 46z" />
    <glyph glyph-name="ellipsis" unicode="&#x2026;" horiz-adv-x="815" 
d="M9 0l36 135h131l-36 -135h-131zM272 0l37 135h130l-36 -135h-131zM535 0l37 135h130l-36 -135h-131z" />
    <glyph glyph-name="perthousand" unicode="&#x2030;" horiz-adv-x="1263" 
d="M62 0l337 349l338 351h109l-337 -349l-338 -351h-109zM236 346q-67 0 -108 42t-41 109q0 92 64 156q55 55 129 55q66 0 107.5 -42.5t41.5 -108.5q0 -93 -65 -156q-55 -55 -128 -55zM241 420q33 0 62 27q42 44 42 106q0 38 -18.5 59.5t-52.5 21.5q-33 0 -62 -27
q-42 -44 -42 -106q0 -38 19 -59.5t52 -21.5zM628 -8q-66 0 -107.5 42.5t-41.5 108.5q0 93 65 156q55 55 128 55q67 0 108 -42t41 -109q0 -92 -64 -156q-55 -55 -129 -55zM633 66q35 0 62 27q43 43 43 106q0 38 -19 59.5t-52 21.5q-35 0 -62 -27q-43 -43 -43 -106
q0 -38 19 -59.5t52 -21.5zM1028 -8q-66 0 -107.5 42.5t-41.5 108.5q0 93 65 156q55 55 128 55q67 0 108 -42t41 -109q0 -92 -64 -156q-55 -55 -129 -55zM1034 66q33 0 62 27q42 44 42 106q0 38 -19 59.5t-52 21.5t-62 -27q-42 -44 -42 -106q0 -38 18.5 -59.5t52.5 -21.5z
" />
    <glyph glyph-name="guilsinglleft" unicode="&#x2039;" horiz-adv-x="354" 
d="M160 36l-114 218l2 8l237 224l65 -61l-174 -179l74 -169z" />
    <glyph glyph-name="guilsinglright" unicode="&#x203a;" horiz-adv-x="354" 
d="M192 485l114 -218l-2 -8l-237 -224l-65 61l174 179l-74 169z" />
    <glyph glyph-name="fraction" unicode="&#x2044;" horiz-adv-x="100" 
d="M-319 0l347 364l314 336h77l-347 -364l-314 -336h-77z" />
    <glyph glyph-name="zero.sup" unicode="&#x2070;" horiz-adv-x="400" 
d="M460 683q0 -61 -22.5 -120t-62.5 -99q-53 -53 -119 -53q-59 0 -95 36.5t-36 100.5q0 61 23 120t63 99q53 53 119 53q58 0 94 -37t36 -100zM202 552q0 -35 16 -54t44 -19q31 0 57 26q29 29 46.5 80.5t17.5 93.5q0 35 -15.5 54t-43.5 19q-31 0 -57 -26q-29 -29 -47 -81
t-18 -93z" />
    <glyph glyph-name="four.sup" unicode="&#x2074;" horiz-adv-x="400" 
d="M282 420l23 85h-189l10 69l251 242h79l-68 -252h53l-16 -59h-53l-23 -85h-67zM193 563h128l45 168z" />
    <glyph glyph-name="five.sup" unicode="&#x2075;" horiz-adv-x="400" 
d="M257 411q-46 0 -87 19t-63 49l50 46q44 -47 101 -47q40 0 65.5 20t25.5 51q0 25 -20 40.5t-54 15.5q-33 0 -65 -16l-44 32l65 189h235l-17 -67h-174l-31 -89q23 10 57 10q57 0 91.5 -30t34.5 -81q0 -59 -47 -100.5t-123 -41.5z" />
    <glyph glyph-name="six.sup" unicode="&#x2076;" horiz-adv-x="400" 
d="M261 411q-64 0 -99 38t-35 104q0 54 22.5 111t62.5 97q61 59 139 59q69 0 109 -44l-40 -53q-31 31 -75 31q-52 0 -89 -39q-33 -34 -47 -82q40 40 99 40q45 0 77 -29t32 -79q0 -61 -45 -107.5t-111 -46.5zM264 472q34 0 58 25t24 57q0 28 -17 45t-46 17q-36 0 -61 -25
q-23 -23 -23 -56q0 -29 17.5 -46t47.5 -17z" />
    <glyph glyph-name="seven.sup" unicode="&#x2077;" horiz-adv-x="400" 
d="M127 419l246 322h-189l18 69h272l-16 -57l-251 -334h-80z" />
    <glyph glyph-name="eight.sup" unicode="&#x2078;" horiz-adv-x="400" 
d="M268 411q-63 0 -105.5 30.5t-42.5 78.5q0 44 28.5 72t75.5 38q-51 27 -51 79q0 45 40 78t107 33q60 0 99 -30t39 -76q0 -39 -24.5 -65.5t-66.5 -34.5q60 -27 60 -85q0 -49 -44 -83.5t-115 -34.5zM271 469q37 0 61.5 17.5t24.5 44.5q1 26 -21.5 42.5t-59.5 16.5
t-61.5 -17.5t-25.5 -44.5q0 -26 23 -42.5t59 -16.5zM313 648q34 0 55.5 16t21.5 42q0 24 -19.5 40t-52.5 16t-55.5 -16.5t-22.5 -42.5q0 -24 20 -39.5t53 -15.5z" />
    <glyph glyph-name="nine.sup" unicode="&#x2079;" horiz-adv-x="400" 
d="M237 411q-74 0 -117 50l40 52q36 -36 83 -36q51 0 87 36q32 32 47 83q-35 -42 -99 -42q-45 0 -77 29t-32 81q0 61 44 108.5t110 47.5q65 0 100.5 -38.5t35.5 -104.5q0 -55 -21.5 -111.5t-59.5 -94.5q-60 -60 -141 -60zM304 611q37 0 60 25q23 23 23 58q0 29 -17.5 47
t-47.5 18q-36 -1 -59 -26.5t-23 -59.5q0 -29 17 -45.5t47 -16.5z" />
    <glyph glyph-name="zero.inf" unicode="&#x2080;" horiz-adv-x="400" 
d="M313 130q0 -61 -22.5 -120t-62.5 -99q-53 -53 -119 -53q-59 0 -95 36.5t-36 100.5q0 61 23 120t63 99q53 53 119 53q58 0 94 -37t36 -100zM55 -1q0 -35 16 -54t44 -19q31 0 57 26q29 29 46.5 80.5t17.5 93.5q0 35 -15.5 54t-43.5 19q-31 0 -57 -26q-29 -29 -47 -81
t-18 -93z" />
    <glyph glyph-name="one.inf" unicode="&#x2081;" horiz-adv-x="325" 
d="M45 -132l84 314l-87 -29l-5 63l130 46h55l-105 -394h-72z" />
    <glyph glyph-name="two.inf" unicode="&#x2082;" horiz-adv-x="400" 
d="M-50 -132l17 62l205 148q56 40 56 75q0 21 -15.5 34t-41.5 13q-49 0 -101 -52l-45 47q64 72 149 72q59 0 94.5 -29.5t35.5 -77.5q0 -36 -20.5 -66t-75.5 -66l-139 -96h185l-17 -64h-287z" />
    <glyph glyph-name="three.inf" unicode="&#x2083;" horiz-adv-x="400" 
d="M108 -142q-98 0 -146 66l49 47q42 -47 97 -47q36 0 61 18.5t25 45.5q0 53 -84 53h-24l-8 44l139 106h-167l18 66h264l-16 -56l-148 -110q101 -14 101 -96q0 -59 -46.5 -98t-114.5 -39z" />
    <glyph glyph-name="four.inf" unicode="&#x2084;" horiz-adv-x="400" 
d="M135 -133l23 85h-189l10 69l251 242h79l-68 -252h53l-16 -59h-53l-23 -85h-67zM46 10h128l45 168z" />
    <glyph glyph-name="five.inf" unicode="&#x2085;" horiz-adv-x="400" 
d="M109 -142q-46 0 -87 19t-63 49l50 46q44 -47 101 -47q40 0 65.5 20t25.5 51q0 25 -20 40.5t-54 15.5q-33 0 -65 -16l-44 32l65 189h235l-17 -67h-174l-31 -89q23 10 57 10q57 0 91.5 -30t34.5 -81q0 -59 -47 -100.5t-123 -41.5z" />
    <glyph glyph-name="six.inf" unicode="&#x2086;" horiz-adv-x="400" 
d="M114 -142q-64 0 -99 38t-35 104q0 54 22.5 111t62.5 97q61 59 139 59q69 0 109 -44l-40 -53q-31 31 -75 31q-52 0 -89 -39q-33 -34 -47 -82q40 40 99 40q45 0 77 -29t32 -79q0 -61 -45 -107.5t-111 -46.5zM117 -81q34 0 58 25t24 57q0 28 -17 45t-46 17q-36 0 -61 -25
q-23 -23 -23 -56q0 -29 17.5 -46t47.5 -17z" />
    <glyph glyph-name="seven.inf" unicode="&#x2087;" horiz-adv-x="400" 
d="M-9 -134l246 322h-189l18 69h272l-16 -57l-251 -334h-80z" />
    <glyph glyph-name="eight.inf" unicode="&#x2088;" horiz-adv-x="400" 
d="M120 -142q-63 0 -105.5 30.5t-42.5 78.5q0 44 28.5 72t75.5 38q-51 27 -51 79q0 45 40 78t107 33q60 0 99 -30t39 -76q0 -39 -24.5 -65.5t-66.5 -34.5q60 -27 60 -85q0 -49 -44 -83.5t-115 -34.5zM123 -84q37 0 61.5 17.5t24.5 44.5q1 26 -21.5 42.5t-59.5 16.5
t-61.5 -17.5t-25.5 -44.5q0 -26 23 -42.5t59 -16.5zM165 95q34 0 55.5 16t21.5 42q0 24 -19.5 40t-52.5 16t-55.5 -16.5t-22.5 -42.5q0 -24 20 -39.5t53 -15.5z" />
    <glyph glyph-name="nine.inf" unicode="&#x2089;" horiz-adv-x="400" 
d="M90 -142q-74 0 -117 50l40 52q36 -36 83 -36q51 0 87 36q32 32 47 83q-35 -42 -99 -42q-45 0 -77 29t-32 81q0 61 44 108.5t110 47.5q65 0 100.5 -38.5t35.5 -104.5q0 -55 -21.5 -111.5t-59.5 -94.5q-60 -60 -141 -60zM157 58q37 0 60 25q23 23 23 58q0 29 -17.5 47
t-47.5 18q-36 -1 -59 -26.5t-23 -59.5q0 -29 17 -45.5t47 -16.5z" />
    <glyph glyph-name="colonmonetary" unicode="&#x20a1;" horiz-adv-x="614" 
d="M591 780h62l-53 -131q33 -22 60 -54l-67 -91q-20 23 -38 40l-178 -439q53 8 114 57l53 -86q-93 -74 -207 -77l-46 -117h-62l48 121q-37 6 -72 20l-56 -141h-63l69 171q-104 80 -104 229q0 93 32.5 176t91.5 141q99 101 242 102l32 79h62l-34 -83q33 -5 72 -21zM243 125
q32 -19 77 -22l190 471q-32 17 -76 22zM167 279q0 -72 35 -118l175 434q-65 -10 -114 -59q-47 -47 -71.5 -118t-24.5 -139z" />
    <glyph glyph-name="naira" unicode="&#x20a6;" horiz-adv-x="834" 
d="M786 210h-104l-56 -210h-125l-69 210h-195l-56 -210h-116l56 210h-102l21 77h102l35 130h-103l21 77h102l56 206h134l68 -206h187l56 206h116l-56 -206h105l-21 -77h-104l-35 -130h105zM323 536l-69 -252h156l-84 252h-3zM556 177h4l64 243h-148z" />
    <glyph glyph-name="rupee" unicode="&#x20a8;" horiz-adv-x="1098" 
d="M919 145q0 21 -17.5 37t-61.5 34q-73 31 -109 62.5t-36 87.5q0 74 57 123t145 49q108 0 195 -66l-61 -81q-72 56 -143 56q-37 0 -59.5 -18t-22.5 -44q0 -21 18.5 -37t63.5 -35q72 -32 107 -63.5t35 -86.5q0 -78 -59.5 -126.5t-145.5 -48.5q-130 0 -226 87l66 74
q73 -69 164 -69q39 0 64.5 18t25.5 47zM400 0l-91 246h-120l-67 -246h-115l188 700h201q55 0 98 -12.5t70 -33t44.5 -47.5t24.5 -53.5t7 -54.5q0 -98 -60 -161.5t-155 -82.5l102 -255h-127zM217 349h115q85 0 136 36.5t51 106.5q0 45 -31.5 73.5t-95.5 28.5h-110z" />
    <glyph glyph-name="won" unicode="&#x20a9;" horiz-adv-x="1114" 
d="M1066 214h-170l-116 -216h-146l1 216h-185l-115 -216h-145l-1 216h-167l20 80h147v113h-116l21 80h95v213h127l-8 -213h173l116 215h139l1 -215h175l105 213h141l-115 -213h96l-21 -80h-118l-61 -113h148zM738 133h6l134 277h-142zM631 554l-143 -264h150l-2 264h-5z
M291 133h5l146 277h-140z" />
    <glyph glyph-name="sheqel" unicode="&#x20aa;" horiz-adv-x="627" 
d="M-8 0l141 528h168q142 0 142 -111q0 -23 -8 -57l-43 -159h-65l28 104q8 37 8 56q0 68 -88 68h-76l-114 -429h-93zM373 0q-185 0 -167 175l16 155h64l-10 -119q-5 -64 18 -87.5t83 -23.5h50l114 428h94l-142 -528h-120z" />
    <glyph glyph-name="Euro" unicode="&#x20ac;" horiz-adv-x="709" 
d="M73 395l23 85h72q34 80 89 133q99 99 238 99q186 0 243 -162l-105 -51q-24 52 -57 77t-90 25q-78 0 -134 -58q-30 -29 -48 -63h227l-23 -85h-235q-14 -48 -18 -84h231l-23 -86h-210q9 -60 45.5 -93t92.5 -33q48 0 84.5 19t74.5 60l84 -72q-101 -118 -245 -118
q-111 0 -182 63.5t-82 173.5h-97l23 86h76q5 43 15 84h-69z" />
    <glyph glyph-name="peso" unicode="&#x20b1;" horiz-adv-x="747" 
d="M771 420h-86q-16 -65 -64 -113q-95 -97 -274 -97h-107l-56 -210h-123l113 420h-100l20 74h100l55 206h181q144 0 212 -69q50 -49 52 -137h96zM265 313h90q114 0 170 56q24 24 34 55h-265zM340 594l-28 -104h257q-3 40 -27 67q-39 37 -112 37h-90z" />
    <glyph glyph-name="published" unicode="&#x2117;" horiz-adv-x="830" 
d="M362 547h123q65 0 102.5 -30t37.5 -85q0 -67 -50 -106t-135 -39h-74l-32 -120h-74zM551 427q0 54 -69 54h-65l-34 -129h62q47 0 76.5 18.5t29.5 56.5zM476 712q144 0 232.5 -90.5t88.5 -227.5q0 -81 -31 -157t-88 -133q-116 -116 -279 -116q-144 0 -232.5 90.5
t-88.5 227.5q0 81 31 157t88 133q116 116 279 116zM400 24q145 0 247 102q111 111 111 268q0 121 -76.5 201.5t-207.5 80.5q-145 0 -247 -102q-110 -110 -110 -267q0 -121 76 -202t207 -81z" />
    <glyph glyph-name="servicemark" unicode="&#x2120;" horiz-adv-x="705" 
d="M202 386q-83 0 -132 58l41 35q42 -45 96 -45q27 0 43.5 12t16.5 32q0 14 -11.5 24t-46.5 23q-44 17 -62.5 35.5t-18.5 47.5q0 37 26 63q33 35 96 35q70 0 112 -47l-37 -38q-35 37 -82 37q-26 0 -42 -12t-16 -29q0 -15 13 -25t50 -24q40 -16 57.5 -34t17.5 -47
q0 -40 -26 -66q-35 -35 -95 -35zM371 392l85 308h58l54 -146l132 146h65l-84 -308h-57l60 219l-134 -147h-6l-56 147l-60 -219h-57z" />
    <glyph glyph-name="trademark" unicode="&#x2122;" horiz-adv-x="697" 
d="M143 392l69 254h-94l15 54h249l-15 -54h-95l-70 -254h-59zM364 392l84 308h59l53 -146l132 146h66l-85 -308h-57l61 219l-135 -147h-6l-55 147l-61 -219h-56z" />
    <glyph glyph-name="onethird" unicode="&#x2153;" horiz-adv-x="825" 
d="M555 -10q-98 0 -146 66l49 47q42 -47 97 -47q36 0 61 18.5t25 45.5q0 53 -84 53h-24l-8 44l139 106h-167l18 66h264l-16 -56l-148 -110q101 -14 101 -96q0 -59 -46.5 -98t-114.5 -39zM139 311l84 315l-86 -30l-6 63l130 47h55l-105 -395h-72zM10 0l347 364l314 336h77
l-347 -364l-314 -336h-77z" />
    <glyph glyph-name="twothirds" unicode="&#x2154;" horiz-adv-x="900" 
d="M630 -10q-98 0 -146 66l49 47q42 -47 97 -47q36 0 61 18.5t25 45.5q0 53 -84 53h-24l-8 44l139 106h-167l18 66h264l-16 -56l-148 -110q101 -14 101 -96q0 -59 -46.5 -98t-114.5 -39zM36 311l16 63l205 147q57 41 57 75q0 21 -16 34t-42 13q-49 0 -101 -52l-45 48
q66 71 149 71q59 0 94.5 -29.5t35.5 -77.5q0 -36 -20.5 -65.5t-74.5 -66.5l-140 -95h185l-17 -65h-286zM81 0l347 364l314 336h77l-347 -364l-314 -336h-77z" />
    <glyph glyph-name="onefifth" unicode="&#x2155;" horiz-adv-x="825" 
d="M556 -10q-46 0 -87 19t-63 49l50 46q44 -47 101 -47q40 0 65.5 20t25.5 51q0 25 -20 40.5t-54 15.5q-33 0 -65 -16l-44 32l65 189h235l-17 -67h-174l-31 -89q23 10 57 10q57 0 91.5 -30t34.5 -81q0 -59 -47 -100.5t-123 -41.5zM139 311l84 315l-86 -30l-6 63l130 47h55
l-105 -395h-72zM15 0l347 364l314 336h77l-347 -364l-314 -336h-77z" />
    <glyph glyph-name="twofifths" unicode="&#x2156;" horiz-adv-x="900" 
d="M631 -10q-46 0 -87 19t-63 49l50 46q44 -47 101 -47q40 0 65.5 20t25.5 51q0 25 -20 40.5t-54 15.5q-33 0 -65 -16l-44 32l65 189h235l-17 -67h-174l-31 -89q23 10 57 10q57 0 91.5 -30t34.5 -81q0 -59 -47 -100.5t-123 -41.5zM91 0l347 364l314 336h77l-347 -364
l-314 -336h-77zM36 311l16 63l205 147q57 41 57 75q0 21 -16 34t-42 13q-49 0 -101 -52l-45 48q66 71 149 71q59 0 94.5 -29.5t35.5 -77.5q0 -36 -20.5 -65.5t-74.5 -66.5l-140 -95h185l-17 -65h-286z" />
    <glyph glyph-name="threefifths" unicode="&#x2157;" horiz-adv-x="900" 
d="M631 -10q-46 0 -87 19t-63 49l50 46q44 -47 101 -47q40 0 65.5 20t25.5 51q0 25 -20 40.5t-54 15.5q-33 0 -65 -16l-44 32l65 189h235l-17 -67h-174l-31 -89q23 10 57 10q57 0 91.5 -30t34.5 -81q0 -59 -47 -100.5t-123 -41.5zM76 0l347 364l314 336h77l-347 -364
l-314 -336h-77zM192 301q-98 0 -145 67l49 46q42 -47 96 -47q37 0 62 19t25 46q0 52 -85 52h-24l-7 44l139 106h-168l18 66h264l-15 -56l-148 -110q101 -14 101 -96q0 -59 -46.5 -98t-115.5 -39z" />
    <glyph glyph-name="fourfifths" unicode="&#x2158;" horiz-adv-x="900" 
d="M221 309l22 85h-188l9 69l252 242h78l-67 -253h52l-16 -58h-52l-23 -85h-67zM631 -10q-46 0 -87 19t-63 49l50 46q44 -47 101 -47q40 0 65.5 20t25.5 51q0 25 -20 40.5t-54 15.5q-33 0 -65 -16l-44 32l65 189h235l-17 -67h-174l-31 -89q23 10 57 10q57 0 91.5 -30
t34.5 -81q0 -59 -47 -100.5t-123 -41.5zM91 0l347 364l314 336h77l-347 -364l-314 -336h-77zM131 452h128l45 168z" />
    <glyph glyph-name="onesixth" unicode="&#x2159;" horiz-adv-x="825" 
d="M561 -10q-64 0 -99 38t-35 104q0 54 22.5 111t62.5 97q61 59 139 59q69 0 109 -44l-40 -53q-31 31 -75 31q-52 0 -89 -39q-33 -34 -47 -82q40 40 99 40q45 0 77 -29t32 -79q0 -61 -45 -107.5t-111 -46.5zM21 0l347 364l314 336h77l-347 -364l-314 -336h-77zM139 311
l84 315l-86 -30l-6 63l130 47h55l-105 -395h-72zM564 51q34 0 58 25t24 57q0 28 -17 45t-46 17q-36 0 -61 -25q-23 -23 -23 -56q0 -29 17.5 -46t47.5 -17z" />
    <glyph glyph-name="fivesixths" unicode="&#x215a;" horiz-adv-x="900" 
d="M636 -10q-64 0 -99 38t-35 104q0 54 22.5 111t62.5 97q61 59 139 59q69 0 109 -44l-40 -53q-31 31 -75 31q-52 0 -89 -39q-33 -34 -47 -82q40 40 99 40q45 0 77 -29t32 -79q0 -61 -45 -107.5t-111 -46.5zM195 301q-46 0 -87 19t-64 49l51 46q44 -47 101 -47
q40 0 65.5 20.5t25.5 50.5q0 25 -20 41t-55 16q-34 0 -65 -17l-44 32l65 189h235l-17 -67h-173l-31 -89q23 10 57 10q57 0 91.5 -30t34.5 -81q0 -59 -47 -100.5t-123 -41.5zM81 0l347 364l314 336h77l-347 -364l-314 -336h-77zM639 51q34 0 58 25t24 57q0 28 -17 45t-46 17
q-36 0 -61 -25q-23 -23 -23 -56q0 -29 17.5 -46t47.5 -17z" />
    <glyph glyph-name="oneeighth" unicode="&#x215b;" horiz-adv-x="825" 
d="M568 -10q-63 0 -105.5 30.5t-42.5 78.5q0 44 28.5 72t75.5 38q-51 27 -51 79q0 45 40 78t107 33q60 0 99 -30t39 -76q0 -39 -24.5 -65.5t-66.5 -34.5q60 -27 60 -85q0 -49 -44 -83.5t-115 -34.5zM571 48q37 0 61.5 17.5t24.5 44.5q1 26 -21.5 42.5t-59.5 16.5
t-61.5 -17.5t-25.5 -44.5q0 -26 23 -42.5t59 -16.5zM613 227q34 0 55.5 16t21.5 42q0 24 -19.5 40t-52.5 16t-55.5 -16.5t-22.5 -42.5q0 -24 20 -39.5t53 -15.5zM139 311l84 315l-86 -30l-6 63l130 47h55l-105 -395h-72zM17 0l347 364l314 336h77l-347 -364l-314 -336h-77z
" />
    <glyph glyph-name="threeeighths" unicode="&#x215c;" horiz-adv-x="900" 
d="M643 -10q-63 0 -105.5 30.5t-42.5 78.5q0 44 28.5 72t75.5 38q-51 27 -51 79q0 45 40 78t107 33q60 0 99 -30t39 -76q0 -39 -24.5 -65.5t-66.5 -34.5q60 -27 60 -85q0 -49 -44 -83.5t-115 -34.5zM646 48q37 0 61.5 17.5t24.5 44.5q1 26 -21.5 42.5t-59.5 16.5
t-61.5 -17.5t-25.5 -44.5q0 -26 23 -42.5t59 -16.5zM688 227q34 0 55.5 16t21.5 42q0 24 -19.5 40t-52.5 16t-55.5 -16.5t-22.5 -42.5q0 -24 20 -39.5t53 -15.5zM81 0l347 364l314 336h77l-347 -364l-314 -336h-77zM192 301q-98 0 -145 67l49 46q42 -47 96 -47q37 0 62 19
t25 46q0 52 -85 52h-24l-7 44l139 106h-168l18 66h264l-15 -56l-148 -110q101 -14 101 -96q0 -59 -46.5 -98t-115.5 -39z" />
    <glyph glyph-name="fiveeighths" unicode="&#x215d;" horiz-adv-x="900" 
d="M643 -10q-63 0 -105.5 30.5t-42.5 78.5q0 44 28.5 72t75.5 38q-51 27 -51 79q0 45 40 78t107 33q60 0 99 -30t39 -76q0 -39 -24.5 -65.5t-66.5 -34.5q60 -27 60 -85q0 -49 -44 -83.5t-115 -34.5zM646 48q37 0 61.5 17.5t24.5 44.5q1 26 -21.5 42.5t-59.5 16.5
t-61.5 -17.5t-25.5 -44.5q0 -26 23 -42.5t59 -16.5zM688 227q34 0 55.5 16t21.5 42q0 24 -19.5 40t-52.5 16t-55.5 -16.5t-22.5 -42.5q0 -24 20 -39.5t53 -15.5zM81 0l347 364l314 336h77l-347 -364l-314 -336h-77zM195 301q-46 0 -87 19t-64 49l51 46q44 -47 101 -47
q40 0 65.5 20.5t25.5 50.5q0 25 -20 41t-55 16q-34 0 -65 -17l-44 32l65 189h235l-17 -67h-173l-31 -89q23 10 57 10q57 0 91.5 -30t34.5 -81q0 -59 -47 -100.5t-123 -41.5z" />
    <glyph glyph-name="seveneighths" unicode="&#x215e;" horiz-adv-x="900" 
d="M643 -10q-63 0 -105.5 30.5t-42.5 78.5q0 44 28.5 72t75.5 38q-51 27 -51 79q0 45 40 78t107 33q60 0 99 -30t39 -76q0 -39 -24.5 -65.5t-66.5 -34.5q60 -27 60 -85q0 -49 -44 -83.5t-115 -34.5zM646 48q37 0 61.5 17.5t24.5 44.5q1 26 -21.5 42.5t-59.5 16.5
t-61.5 -17.5t-25.5 -44.5q0 -26 23 -42.5t59 -16.5zM688 227q34 0 55.5 16t21.5 42q0 24 -19.5 40t-52.5 16t-55.5 -16.5t-22.5 -42.5q0 -24 20 -39.5t53 -15.5zM85 309l247 323h-190l19 68h271l-16 -57l-250 -334h-81zM51 0l347 364l314 336h77l-347 -364l-314 -336h-77z
" />
    <glyph glyph-name="minus" unicode="&#x2212;" horiz-adv-x="634" 
d="M77 296l30 113h498l-30 -113h-498z" />
    <glyph glyph-name="Q.alt" horiz-adv-x="836" 
d="M491 712q140 0 227.5 -87.5t87.5 -219.5q0 -82 -33 -159.5t-92 -136.5l-2 -2l62 -77l-101 -68l-52 76q-91 -50 -198 -50q-139 0 -226.5 87.5t-87.5 219.5q0 82 33 160t92 136q119 121 290 121zM403 101q63 0 118 30l-98 126l101 70l84 -124q70 88 70 195
q0 88 -53.5 144.5t-145.5 56.5q-105 0 -184 -79q-43 -43 -67 -101t-24 -117q0 -89 53.5 -145t145.5 -56z" />
    <glyph glyph-name="a.alt" horiz-adv-x="668" 
d="M250 -11q-90 0 -148 61.5t-58 164.5q0 142 96 238q86 86 198 86q121 0 178 -105l25 94h121l-141 -528h-121l19 70q-79 -81 -169 -81zM296 93q71 0 124 55q66 66 66 154q0 58 -37.5 95.5t-96.5 37.5q-67 0 -118 -51q-64 -64 -64 -161q0 -60 34.5 -95t91.5 -35z" />
    <glyph glyph-name="aacute.alt" horiz-adv-x="668" 
d="M366 595l150 164l108 -49l-153 -115h-105zM250 -11q-90 0 -148 61.5t-58 164.5q0 142 96 238q86 86 198 86q121 0 178 -105l25 94h121l-141 -528h-121l19 70q-79 -81 -169 -81zM296 93q71 0 124 55q66 66 66 154q0 58 -37.5 95.5t-96.5 37.5q-67 0 -118 -51
q-64 -64 -64 -161q0 -60 34.5 -95t91.5 -35z" />
    <glyph glyph-name="abreve.alt" horiz-adv-x="668" 
d="M250 -11q-90 0 -148 61.5t-58 164.5q0 142 96 238q86 86 198 86q121 0 178 -105l25 94h121l-141 -528h-121l19 70q-79 -81 -169 -81zM296 93q71 0 124 55q66 66 66 154q0 58 -37.5 95.5t-96.5 37.5q-67 0 -118 -51q-64 -64 -64 -161q0 -60 34.5 -95t91.5 -35zM428 593
q-77 0 -114 40.5t-33 104.5h84q1 -27 18.5 -44t51.5 -17q66 0 105 61h86q-22 -65 -74 -105t-124 -40z" />
    <glyph glyph-name="acircumflex.alt" horiz-adv-x="668" 
d="M241 595l155 147h113l77 -147h-90l-59 67l-96 -67h-100zM250 -11q-90 0 -148 61.5t-58 164.5q0 142 96 238q86 86 198 86q121 0 178 -105l25 94h121l-141 -528h-121l19 70q-79 -81 -169 -81zM296 93q71 0 124 55q66 66 66 154q0 58 -37.5 95.5t-96.5 37.5q-67 0 -118 -51
q-64 -64 -64 -161q0 -60 34.5 -95t91.5 -35z" />
    <glyph glyph-name="adieresis.alt" horiz-adv-x="668" 
d="M258 595l32 119h123l-32 -119h-123zM457 595l32 119h123l-33 -119h-122zM250 -11q-90 0 -148 61.5t-58 164.5q0 142 96 238q86 86 198 86q121 0 178 -105l25 94h121l-141 -528h-121l19 70q-79 -81 -169 -81zM296 93q71 0 124 55q66 66 66 154q0 58 -37.5 95.5t-96.5 37.5
q-67 0 -118 -51q-64 -64 -64 -161q0 -60 34.5 -95t91.5 -35z" />
    <glyph glyph-name="agrave.alt" horiz-adv-x="668" 
d="M250 -11q-90 0 -148 61.5t-58 164.5q0 142 96 238q86 86 198 86q121 0 178 -105l25 94h121l-141 -528h-121l19 70q-79 -81 -169 -81zM296 93q71 0 124 55q66 66 66 154q0 58 -37.5 95.5t-96.5 37.5q-67 0 -118 -51q-64 -64 -64 -161q0 -60 34.5 -95t91.5 -35zM368 595
l-91 115l113 49l61 -164h-83z" />
    <glyph glyph-name="amacron.alt" horiz-adv-x="668" 
d="M250 -11q-90 0 -148 61.5t-58 164.5q0 142 96 238q86 86 198 86q121 0 178 -105l25 94h121l-141 -528h-121l19 70q-79 -81 -169 -81zM296 93q71 0 124 55q66 66 66 154q0 58 -37.5 95.5t-96.5 37.5q-67 0 -118 -51q-64 -64 -64 -161q0 -60 34.5 -95t91.5 -35zM250 606
l24 88h343l-24 -88h-343z" />
    <glyph glyph-name="aogonek.alt" horiz-adv-x="668" 
d="M511 -106l-15 -58q-20 -3 -37 -3q-107 3 -107 67q0 46 68 100h-20l19 70q-79 -81 -169 -81t-148 61.5t-58 164.5q0 142 96 238q86 86 198 86q121 0 178 -105l25 94h121l-141 -528h-16q-55 -48 -55 -75q0 -30 61 -31zM296 93q71 0 124 55q66 66 66 154q0 58 -37.5 95.5
t-96.5 37.5q-67 0 -118 -51q-64 -64 -64 -161q0 -60 34.5 -95t91.5 -35z" />
    <glyph glyph-name="aring.alt" horiz-adv-x="668" 
d="M564 718q0 -50 -37 -87.5t-89 -37.5q-47 0 -77 28.5t-30 70.5q0 50 37 87.5t89 37.5q48 0 77.5 -28.5t29.5 -70.5zM383 696q0 -26 15.5 -42t41.5 -16q31 0 52 23t21 53q0 26 -16 42t-42 16q-30 0 -51 -23.5t-21 -52.5zM250 -11q-90 0 -148 61.5t-58 164.5q0 142 96 238
q86 86 198 86q121 0 178 -105l25 94h121l-141 -528h-121l19 70q-79 -81 -169 -81zM296 93q71 0 124 55q66 66 66 154q0 58 -37.5 95.5t-96.5 37.5q-67 0 -118 -51q-64 -64 -64 -161q0 -60 34.5 -95t91.5 -35z" />
    <glyph glyph-name="aring.alt2" horiz-adv-x="583" 
d="M327 0l18 70q-73 -81 -174 -81q-69 0 -114 40t-45 104q0 75 50 127q66 64 181 64q77 0 164 -26l3 9q6 26 6 44q0 80 -117 80q-72 0 -144 -29l-20 98q68 26 144 33q-20 25 -20 59q0 48 37 85t89 37q47 0 77 -28.5t30 -70.5q0 -63 -56 -99q98 -38 98 -144q0 -29 -11 -77
l-79 -295h-117zM368 535q30 0 51 23t21 53q0 26 -15.5 41.5t-41.5 15.5q-31 0 -52 -23t-21 -52q0 -26 16 -42t42 -16zM219 76q55 0 101.5 36.5t61.5 89.5l7 24q-62 20 -128 20q-65 0 -102 -35q-26 -26 -26 -64q0 -32 23.5 -51.5t62.5 -19.5z" />
    <glyph glyph-name="aringacute.alt" horiz-adv-x="668" 
d="M436 849l148 138l105 -49l-151 -89h-102zM564 718q0 -50 -37 -87.5t-89 -37.5q-47 0 -77 28.5t-30 70.5q0 50 37 87.5t89 37.5q48 0 77.5 -28.5t29.5 -70.5zM383 696q0 -26 15.5 -42t41.5 -16q31 0 52 23t21 53q0 26 -16 42t-42 16q-30 0 -51 -23.5t-21 -52.5zM250 -11
q-90 0 -148 61.5t-58 164.5q0 142 96 238q86 86 198 86q121 0 178 -105l25 94h121l-141 -528h-121l19 70q-79 -81 -169 -81zM296 93q71 0 124 55q66 66 66 154q0 58 -37.5 95.5t-96.5 37.5q-67 0 -118 -51q-64 -64 -64 -161q0 -60 34.5 -95t91.5 -35z" />
    <glyph glyph-name="aringacute.alt2" horiz-adv-x="583" 
d="M364 749l148 139l104 -49l-151 -90h-101zM327 0l18 70q-73 -81 -174 -81q-69 0 -114 40t-45 104q0 75 50 127q66 64 181 64q77 0 164 -26l3 9q6 26 6 44q0 80 -117 80q-72 0 -144 -29l-20 98q68 26 144 33q-20 25 -20 59q0 48 37 85t89 37q47 0 77 -28.5t30 -70.5
q0 -63 -56 -99q98 -38 98 -144q0 -29 -11 -77l-79 -295h-117zM368 535q30 0 51 23t21 53q0 26 -15.5 41.5t-41.5 15.5q-31 0 -52 -23t-21 -52q0 -26 16 -42t42 -16zM219 76q55 0 101.5 36.5t61.5 89.5l7 24q-62 20 -128 20q-65 0 -102 -35q-26 -26 -26 -64q0 -32 23.5 -51.5
t62.5 -19.5z" />
    <glyph glyph-name="atilde.alt" horiz-adv-x="668" 
d="M250 -11q-90 0 -148 61.5t-58 164.5q0 142 96 238q86 86 198 86q121 0 178 -105l25 94h121l-141 -528h-121l19 70q-79 -81 -169 -81zM296 93q71 0 124 55q66 66 66 154q0 58 -37.5 95.5t-96.5 37.5q-67 0 -118 -51q-64 -64 -64 -161q0 -60 34.5 -95t91.5 -35zM565 740
l67 -22q-29 -64 -58 -93.5t-72 -29.5q-30 0 -80 22q-42 18 -56 18q-21 0 -34.5 -11.5t-29.5 -38.5l-67 22q28 64 57 93.5t73 29.5q29 0 79 -22q44 -18 57 -18q21 0 34 11t30 39z" />
    <glyph glyph-name="three.alt" horiz-adv-x="615" 
d="M257 -12q-97 0 -163 37t-101 95l93 68q69 -89 180 -89q68 0 108.5 32.5t40.5 77.5q0 93 -144 93h-62l28 103h68q77 0 124.5 29t47.5 80q0 39 -32 63t-81 24q-83 0 -165 -71l-69 78q105 103 246 103q102 0 165 -50.5t63 -128.5q0 -138 -172 -182q47 -16 77.5 -53t30.5 -91
q0 -93 -79 -155.5t-204 -62.5z" />
    <glyph glyph-name="registered.alt" horiz-adv-x="830" 
d="M476 712q144 0 232.5 -90.5t88.5 -227.5q0 -81 -31 -157t-88 -133q-116 -116 -279 -116q-144 0 -232.5 90.5t-88.5 227.5q0 81 31 157t88 133q116 116 279 116zM400 24q145 0 247 102q111 111 111 268q0 121 -76.5 201.5t-207.5 80.5q-145 0 -247 -102
q-110 -110 -110 -267q0 -121 76 -202t207 -81zM351 302l-35 -131h-72l101 379h139q78 0 114 -35q29 -29 29 -75q0 -53 -35 -86q-32 -32 -86 -44l63 -139h-78l-57 131h-83zM368 365h80q61 0 88 27q17 17 17 43q0 21 -12 33q-17 17 -64 17h-77z" />
    <glyph glyph-name="R_p" horiz-adv-x="1201" 
d="M7 0l188 700h201q55 0 98 -12.5t70 -33t44.5 -47.5t24.5 -53.5t7 -54.5q0 -98 -60 -161.5t-155 -82.5l102 -255h-127l-91 246h-120l-67 -246h-115zM570 -160l185 689h114l-19 -67q68 78 147 78q77 0 122.5 -55.5t45.5 -155.5q0 -164 -104 -268q-72 -72 -157 -72
q-109 0 -152 104l-68 -253h-114zM217 349h115q85 0 136 36.5t51 106.5q0 45 -31.5 73.5t-95.5 28.5h-110zM886 88q50 0 92 42q68 68 68 183q0 60 -26 94t-73 34q-51 0 -96 -45q-31 -30 -49.5 -77t-18.5 -98q0 -58 27.5 -95.5t75.5 -37.5z" />
    <glyph glyph-name="onehalf.alt" horiz-adv-x="900" 
d="M61 311l17 64h104l67 251l-102 -35l-6 63l147 52h54l-88 -331h98l-17 -64h-274zM472 0l17 62l205 148q56 40 56 75q0 21 -15.5 34t-41.5 13q-49 0 -101 -52l-45 47q64 72 149 72q59 0 94.5 -29.5t35.5 -77.5q0 -36 -20.5 -66t-75.5 -66l-139 -96h185l-17 -64h-287zM101 0
l347 364l314 336h77l-347 -364l-314 -336h-77z" />
    <glyph glyph-name="onethird.alt" horiz-adv-x="900" 
d="M61 311l17 64h104l67 251l-102 -35l-6 63l147 52h54l-88 -331h98l-17 -64h-274zM630 -10q-98 0 -146 66l49 47q42 -47 97 -47q36 0 61 18.5t25 45.5q0 53 -84 53h-24l-8 44l139 106h-167l18 66h264l-16 -56l-148 -110q101 -14 101 -96q0 -59 -46.5 -98t-114.5 -39zM91 0
l347 364l314 336h77l-347 -364l-314 -336h-77z" />
    <glyph glyph-name="onequarter.alt" horiz-adv-x="900" 
d="M647 -1l23 85h-189l10 69l251 242h79l-68 -252h53l-16 -59h-53l-23 -85h-67zM106 0l347 364l314 336h77l-347 -364l-314 -336h-77zM61 311l17 64h104l67 251l-102 -35l-6 63l147 52h54l-88 -331h98l-17 -64h-274zM558 142h128l45 168z" />
    <glyph glyph-name="onefifth.alt" horiz-adv-x="900" 
d="M61 311l17 64h104l67 251l-102 -35l-6 63l147 52h54l-88 -331h98l-17 -64h-274zM631 -10q-46 0 -87 19t-63 49l50 46q44 -47 101 -47q40 0 65.5 20t25.5 51q0 25 -20 40.5t-54 15.5q-33 0 -65 -16l-44 32l65 189h235l-17 -67h-174l-31 -89q23 10 57 10q57 0 91.5 -30
t34.5 -81q0 -59 -47 -100.5t-123 -41.5zM96 0l347 364l314 336h77l-347 -364l-314 -336h-77z" />
    <glyph glyph-name="onesixth.alt" horiz-adv-x="900" 
d="M636 -10q-64 0 -99 38t-35 104q0 54 22.5 111t62.5 97q61 59 139 59q69 0 109 -44l-40 -53q-31 31 -75 31q-52 0 -89 -39q-33 -34 -47 -82q40 40 99 40q45 0 77 -29t32 -79q0 -61 -45 -107.5t-111 -46.5zM96 0l347 364l314 336h77l-347 -364l-314 -336h-77zM61 311l17 64
h104l67 251l-102 -35l-6 63l147 52h54l-88 -331h98l-17 -64h-274zM639 51q34 0 58 25t24 57q0 28 -17 45t-46 17q-36 0 -61 -25q-23 -23 -23 -56q0 -29 17.5 -46t47.5 -17z" />
    <glyph glyph-name="oneeighth.alt" horiz-adv-x="900" 
d="M61 311l17 64h104l67 251l-102 -35l-6 63l147 52h54l-88 -331h98l-17 -64h-274zM643 -10q-63 0 -105.5 30.5t-42.5 78.5q0 44 28.5 72t75.5 38q-51 27 -51 79q0 45 40 78t107 33q60 0 99 -30t39 -76q0 -39 -24.5 -65.5t-66.5 -34.5q60 -27 60 -85q0 -49 -44 -83.5
t-115 -34.5zM646 48q37 0 61.5 17.5t24.5 44.5q1 26 -21.5 42.5t-59.5 16.5t-61.5 -17.5t-25.5 -44.5q0 -26 23 -42.5t59 -16.5zM688 227q34 0 55.5 16t21.5 42q0 24 -19.5 40t-52.5 16t-55.5 -16.5t-22.5 -42.5q0 -24 20 -39.5t53 -15.5zM96 0l347 364l314 336h77
l-347 -364l-314 -336h-77z" />
    <glyph glyph-name="one.sup_alt" horiz-adv-x="400" 
d="M118 421l17 63h105l67 251l-102 -35l-6 64l146 51h55l-88 -331h98l-17 -63h-275z" />
    <glyph glyph-name="one.inf_alt" horiz-adv-x="400" 
d="M-30 -132l17 63h105l67 251l-102 -35l-6 64l146 51h55l-88 -331h98l-17 -63h-275z" />
    <glyph glyph-name="zero.tab" 
d="M571 479q0 -112 -40 -224.5t-111 -183.5q-82 -82 -188 -82q-96 0 -150 60.5t-54 171.5q0 112 40 224.5t111 183.5q84 82 188 82q96 0 150 -60.5t54 -171.5zM144 226q0 -132 98 -132q50 0 93 43q54 53 87.5 156t33.5 181q0 133 -99 133q-49 0 -93 -44q-53 -53 -86.5 -156
t-33.5 -181z" />
    <glyph glyph-name="one.tab" 
d="M-12 0l26 101h189l126 471l-183 -60l-5 106l258 87h84l-162 -604h170l-27 -101h-476z" />
    <glyph glyph-name="two.tab" 
d="M-44 0l26 96l368 279q94 72 94 138q0 40 -29 63.5t-78 23.5q-87 0 -180 -93l-71 80q114 123 257 123q102 0 164 -51.5t62 -133.5q0 -64 -36 -116t-121 -113l-258 -189h326l-29 -107h-495z" />
    <glyph glyph-name="three.tab" 
d="M225 -12q-172 0 -250 121l85 75q67 -86 171 -86q65 0 110 36t45 86q0 47 -41.5 71.5t-113.5 24.5h-38l-10 74l241 204h-304l29 106h464l-26 -96l-251 -206q79 -9 127 -51.5t48 -115.5q0 -103 -83 -173t-203 -70z" />
    <glyph glyph-name="three.tab_alt" 
d="M223 -12q-177 0 -258 127l90 69q66 -87 179 -87q68 0 107.5 33t39.5 79q0 95 -143 95h-60l27 100h69q76 0 124.5 29.5t48.5 80.5q0 39 -32.5 64t-81.5 25q-88 0 -169 -70l-63 79q108 99 245 99q102 0 165 -50.5t63 -128.5q0 -139 -178 -181q47 -16 77.5 -53.5t30.5 -91.5
q0 -93 -79.5 -155.5t-201.5 -62.5z" />
    <glyph glyph-name="four.tab" 
d="M278 0l41 153h-322l7 112l436 439h139l-122 -455h90l-26 -96h-90l-41 -153h-112zM120 248h225l84 314z" />
    <glyph glyph-name="five.tab" 
d="M222 -11q-75 0 -142.5 32.5t-105.5 83.5l82 77q73 -86 178 -86q73 0 118.5 39t45.5 97q0 49 -36 78t-98 29q-61 0 -121 -29l-66 51l114 339h409l-30 -109h-304l-57 -169q42 15 97 15q99 0 159 -52.5t60 -142.5q0 -105 -84 -179t-219 -74z" />
    <glyph glyph-name="six.tab" 
d="M265 -12q-102 0 -165 63q-67 67 -67 189q0 100 39.5 199t108.5 168q104 104 239 104q121 0 187 -73l-65 -85q-51 51 -129 51q-91 0 -157 -68q-66 -66 -90 -161q64 74 175 74q80 0 137 -52t57 -141q0 -106 -78.5 -187t-191.5 -81zM269 88q62 0 104.5 46t42.5 108
q0 52 -30.5 82t-85.5 30q-63 0 -107 -44q-42 -42 -42 -103q0 -53 32.5 -86t85.5 -33z" />
    <glyph glyph-name="seven.tab" 
d="M28 0l427 590h-349l30 110h491l-27 -94l-430 -606h-142z" />
    <glyph glyph-name="eight.tab" 
d="M252 -10q-105 0 -178 53t-73 137q0 77 50.5 127.5t131.5 67.5q-88 44 -88 137q0 78 68.5 138t181.5 60q102 0 168.5 -51t66.5 -132q0 -67 -43.5 -114.5t-115.5 -62.5q105 -46 105 -148q0 -87 -76.5 -149.5t-197.5 -62.5zM258 87q63 0 106 33.5t43 83.5q1 46 -37.5 75
t-100.5 29q-64 0 -106 -34t-43 -82q-1 -47 37.5 -76t100.5 -29zM330 405q60 0 97.5 31.5t37.5 77.5q1 42 -32.5 70t-89.5 28q-57 0 -95.5 -31.5t-39.5 -77.5q-1 -42 33 -70t89 -28z" />
    <glyph glyph-name="nine.tab" 
d="M181 -12q-127 0 -197 78l64 86q57 -57 140 -57q87 0 154 65q59 59 86 159q-62 -76 -169 -76q-83 0 -140.5 53.5t-57.5 145.5q0 105 79 187.5t193 82.5q101 0 163 -62q67 -67 67 -190q0 -103 -38.5 -202.5t-107.5 -167.5q-102 -102 -236 -102zM296 339q64 0 105 43
q44 44 44 107q0 55 -33 88.5t-86 33.5q-62 0 -105 -46.5t-43 -109.5q0 -54 31 -85t87 -31z" />
    <glyph glyph-name="period.tab" horiz-adv-x="300" 
d="M-13 0l38 143h141l-39 -143h-140z" />
    <glyph glyph-name="comma.tab" horiz-adv-x="300" 
d="M-65 -145l-9 51q101 14 115 94h-55l38 143h141l-33 -122q-22 -83 -69.5 -121.5t-127.5 -44.5z" />
    <glyph glyph-name="colon.tab" horiz-adv-x="300" 
d="M-13 0l38 141h138l-38 -141h-138zM91 388l38 140h138l-38 -140h-138z" />
    <glyph glyph-name="semicolon.tab" horiz-adv-x="300" 
d="M-65 -145l-9 51q101 14 115 94h-54l38 141h138l-32 -120q-22 -83 -69 -121.5t-127 -44.5zM91 388l38 140h138l-38 -140h-138z" />
    <glyph glyph-name="twodotleader.tab" 
d="M-11 0l37 136h134l-37 -136h-134zM289 0l37 136h134l-37 -136h-134z" />
    <glyph glyph-name="periodcentered.tab" horiz-adv-x="300" 
d="M49 235l39 143h141l-39 -143h-141z" />
    <glyph glyph-name="slash.tab" 
d="M-136 -128l733 926h117l-734 -926h-116z" />
    <glyph glyph-name="bar.tab" horiz-adv-x="300" 
d="M-27 -128l249 926h97l-249 -926h-97z" />
    <glyph glyph-name="underscore.tab" 
d="M-139 -160l26 94h603l-25 -94h-604z" />
    <glyph glyph-name="dollar.tab" 
d="M391 773h84l-24 -84q85 -21 155 -81l-71 -82q-57 50 -115 66l-59 -200q76 -29 114 -69.5t38 -104.5q0 -96 -75 -157t-190 -61l-29 -98h-84l31 105q-120 22 -197 109l75 77q65 -73 154 -90l60 208q-79 29 -118.5 69t-39.5 106q0 91 73 152.5t180 61.5q2 0 7.5 -0.5
t8.5 -0.5zM223 502q0 -27 15 -45.5t53 -36.5l52 182q-56 -2 -88 -31t-32 -69zM390 203q0 27 -14 45.5t-48 34.5l-54 -185q51 5 83.5 33t32.5 72z" />
    <glyph glyph-name="sterling.tab" 
d="M-38 0l20 76l81 23l50 183h-75l27 100h75l27 105q27 101 79 152q70 70 176 70q116 0 183 -101l-86 -69q-44 59 -103 59q-51 0 -86 -35q-31 -31 -49 -96l-23 -85h232l-27 -100h-231l-48 -177h303l-28 -105h-497z" />
    <glyph glyph-name="Euro.tab" 
d="M44 396l21 81h75q37 91 96 150q87 85 196 85q67 0 116 -33t75 -88l-83 -62q-46 77 -117 77q-53 0 -102 -47q-30 -30 -56 -82h192l-22 -81h-201q-13 -48 -17 -87h195l-21 -81h-178q9 -134 116 -134q62 0 122 57l60 -79q-89 -84 -195 -84q-92 0 -154 61t-68 179h-95l22 81
h76q5 43 15 87h-68z" />
    <glyph glyph-name="yen.tab" 
d="M57 265l22 81h141l-117 354h125l83 -293l238 293h139l-308 -354h139l-21 -81h-162l-23 -84h163l-22 -81h-162l-27 -100h-116l27 100h-163l22 81h162l23 84h-163z" />
    <glyph glyph-name="cent.tab" 
d="M516 706l-39 -100q83 -32 118 -103l-83 -58q-30 48 -75 69l-131 -333h10q77 0 148 59l61 -76q-88 -78 -210 -78q-21 0 -42 3l-37 -95h-88l46 116q-63 27 -98.5 82t-35.5 127q0 128 89 215q90 90 224 90q3 0 11 -0.5t11 -0.5l33 83h88zM170 323q0 -85 65 -122l128 327
q-78 -1 -132 -57q-61 -61 -61 -148z" />
    <glyph glyph-name="numbersign.tab" 
d="M29 0l52 161h-81l27 104h88l56 175h-92l27 103h98l51 157h94l-52 -157h142l52 157h93l-51 -157h82l-27 -103h-88l-56 -175h92l-27 -104h-99l-51 -161h-94l51 161h-142l-51 -161h-94zM208 265h142l56 175h-142z" />
    <glyph glyph-name="paragraph.tab" 
d="M285 0l60 227h-9q-145 0 -210 67q-51 50 -51 137q0 106 71 177q92 92 279 92h171l-188 -700h-123z" />
    <glyph glyph-name="section.tab" 
d="M242 -9q-134 0 -217 78l70 74q70 -60 154 -60q35 0 56.5 14t21.5 37q0 21 -22.5 36t-78.5 34q-39 13 -60 21t-48 21.5t-40.5 26.5t-23 32t-9.5 42q0 52 42 86t119 44q-49 36 -49 87q0 64 57.5 105.5t141.5 41.5q136 0 218 -79l-70 -74q-68 61 -155 61q-34 0 -56 -14
t-22 -37q0 -20 22 -35t79 -35q40 -14 60 -21.5t48 -21t40.5 -26t22.5 -31.5t10 -42q0 -52 -42 -86.5t-119 -44.5q49 -35 49 -87q0 -65 -57 -106t-142 -41zM360 274q34 0 58 17t24 42q0 22 -23 38t-76 34q-70 23 -105 23q-34 0 -58 -17t-24 -41q0 -23 23 -39t76 -33
q68 -24 105 -24z" />
    <glyph glyph-name="degree.tab" 
d="M365 709q81 0 132.5 -50.5t51.5 -129.5q0 -93 -68 -159q-65 -67 -156 -67q-82 0 -133.5 50t-51.5 129q0 90 68 160q67 67 157 67zM329 373q57 0 99 42q46 46 46 113q0 49 -31.5 79.5t-82.5 30.5q-57 0 -98 -41q-46 -46 -46 -114q0 -49 31.5 -79.5t81.5 -30.5z" />
    <glyph glyph-name="percent.tab" 
d="M224 707q42 0 67 -30t25 -83q0 -58 -22 -116t-58 -94q-42 -42 -90 -42q-42 0 -67.5 30t-25.5 83q0 58 22 116t58 94q42 42 91 42zM379 -7q-41 0 -66.5 30t-25.5 83q0 59 22 116.5t58 93.5q42 42 91 42q41 0 66.5 -30t25.5 -83q0 -58 -22 -115.5t-58 -94.5
q-42 -42 -91 -42zM533 700h71l-283 -363l-251 -337h-71l283 362zM214 642q-17 0 -32 -15q-24 -24 -41.5 -79t-17.5 -93q0 -49 33 -49q16 0 32 16q24 25 41 79.5t17 92.5q0 48 -32 48zM390 58q15 0 31 16q24 24 41.5 78.5t17.5 92.5q0 49 -33 49q-16 0 -32 -16
q-24 -25 -41 -79.5t-17 -92.5q0 -48 33 -48z" />
    <glyph glyph-name="quotedbl.tab" 
d="M122 401l110 299h138l-1 -5l-183 -294h-64zM362 401l110 299h138l-2 -5l-182 -294h-64z" />
    <glyph glyph-name="quotesingle.tab" horiz-adv-x="300" 
d="M93 401l110 299h138l-2 -5l-182 -294h-64z" />
    <glyph glyph-name="plus.tab" 
d="M181 111l51 188h-185l29 106h184l50 188h110l-51 -188h185l-29 -106h-182l-50 -188h-112z" />
    <glyph glyph-name="minus.tab" 
d="M47 296l29 113h478l-29 -113h-478z" />
    <glyph glyph-name="divide.tab" 
d="M161 80l34 128h133l-33 -128h-134zM47 300l29 104h478l-29 -104h-478zM273 497l34 127h133l-34 -127h-133z" />
    <glyph glyph-name="equal.tab" 
d="M31 176l29 108h445l-29 -108h-445zM97 420l28 108h446l-29 -108h-445z" />
    <glyph glyph-name="multiply.tab" 
d="M91 118l-63 84l201 156l-115 152l94 73l110 -155l200 159l62 -85l-200 -155l113 -151l-93 -74l-110 155z" />
    <glyph glyph-name="less.tab" 
d="M443 84l-393 214l29 108l509 223l-33 -121l-378 -160l295 -154z" />
    <glyph glyph-name="greater.tab" 
d="M158 620l393 -214l-29 -108l-509 -223l33 121l378 160l-295 154z" />
    <glyph glyph-name="plusminus.tab" 
d="M203 196l49 177h-185l29 107l184 -1l47 178h110l-48 -178l185 1l-29 -107h-184l-48 -177h-110zM-32 0l27 103h478l-28 -103h-477z" />
    <glyph glyph-name="space.tab" horiz-adv-x="300" 
 />
    <glyph glyph-name="NUL" horiz-adv-x="0" 
 />
    <glyph glyph-name="hfjslug" horiz-adv-x="694" 
d="M255 276h8l11 34h1l11 -34h8l14 47h-8l-10 -35h-1l-11 35h-7l-11 -35h-1l-10 35h-8zM321 388q19 0 29 24h1l12 -24l12 6l-17 32q6 14 13 39l-13 3q-4 -18 -8 -30h-1l-16 31q23 21 23 42q0 31 -27 31q-12 0 -20 -9t-8 -22t14 -39q-23 -18 -23 -47q0 -16 8 -26.5t21 -10.5z
M50 -200v303q14 0 23 9.5t9 22.5t-9.5 22.5t-22.5 9.5v554h100l30 79h334l29 -79h101v-921h-208l-8 14h-163l-8 -14h-207zM523 277h8v12l8 8l15 -20h10l-20 26l18 20h-10l-20 -24h-1v24h-8v-46zM193 277h34v7h-26v13h23v7h-23v12h26v7h-34v-46zM184 391h15v79h47v-79h15v172
h-15v-79h-47v79h-15v-172zM132 277h8v32l25 -32h7v46h-8v-32l-25 32h-7v-46zM400 391h15v78h38v14h-38v66h43v14h-58v-172zM468 277h8v15h12l10 -15h9l-12 17q10 4 10 14q0 15 -17 15h-20v-46zM366 277h8v17l18 29h-9l-13 -22l-13 22h-9l18 -29v-17zM481 390q31 0 31 36v137
h-16v-137q0 -22 -16 -22q-8 0 -20 5v-15q10 -4 21 -4zM476 299v17h11q10 0 10 -8q0 -9 -10 -9h-11zM322 402q-16 0 -16 25q0 19 16 35l20 -39q-8 -21 -20 -21zM327 479q-12 22 -12 32q0 19 14 19q13 0 13 -19q0 -15 -15 -32zM426 283q-16 0 -16 17q0 6 4.5 11.5t11.5 5.5
t11.5 -5.5t4.5 -11.5q0 -17 -16 -17zM426 276q10 0 17 7t7 17q0 9 -7 16.5t-17 7.5t-17 -7.5t-7 -16.5q0 -10 7 -17t17 -7z" />
    <glyph glyph-name="i.dot" horiz-adv-x="286" 
d="M12 0l142 528h121l-142 -528h-121zM171 609l31 115h131l-32 -115h-130z" />
    <glyph glyph-name="zero.num" horiz-adv-x="400" 
d="M409 573q0 -60 -23 -119.5t-62 -99.5q-55 -53 -120 -53q-58 0 -94 37t-36 100q0 60 23 119.5t62 99.5q53 53 120 53q59 0 94.5 -36.5t35.5 -100.5zM151 442q0 -35 16 -54t44 -19q30 0 56 26q29 29 47 81t18 93q0 35 -16 54t-44 19q-30 0 -56 -26q-30 -30 -47.5 -81.5
t-17.5 -92.5z" />
    <glyph glyph-name="one.num" horiz-adv-x="325" 
d="M140 311l84 315l-86 -30l-6 63l130 47h55l-105 -395h-72z" />
    <glyph glyph-name="one.num_alt" horiz-adv-x="400" 
d="M66 311l17 64h104l67 251l-102 -35l-6 63l147 52h54l-88 -331h98l-17 -64h-274z" />
    <glyph glyph-name="two.num" horiz-adv-x="400" 
d="M46 311l16 63l205 147q57 41 57 75q0 21 -16 34t-42 13q-49 0 -101 -52l-45 48q66 71 149 71q59 0 94.5 -29.5t35.5 -77.5q0 -36 -20.5 -65.5t-74.5 -66.5l-140 -95h185l-17 -65h-286z" />
    <glyph glyph-name="three.num" horiz-adv-x="400" 
d="M202 301q-98 0 -145 67l49 46q42 -47 96 -47q37 0 62 19t25 46q0 52 -85 52h-24l-7 44l139 106h-168l18 66h264l-15 -56l-148 -110q101 -14 101 -96q0 -59 -46.5 -98t-115.5 -39z" />
    <glyph glyph-name="four.num" horiz-adv-x="400" 
d="M231 309l22 85h-188l9 69l252 242h78l-67 -253h52l-16 -58h-52l-23 -85h-67zM141 452h128l45 168z" />
    <glyph glyph-name="five.num" horiz-adv-x="400" 
d="M205 301q-46 0 -87 19t-64 49l51 46q44 -47 101 -47q40 0 65.5 20.5t25.5 50.5q0 25 -20 41t-55 16q-34 0 -65 -17l-44 32l65 189h235l-17 -67h-173l-31 -89q23 10 57 10q57 0 91.5 -30t34.5 -81q0 -59 -47 -100.5t-123 -41.5z" />
    <glyph glyph-name="six.num" horiz-adv-x="400" 
d="M210 302q-64 0 -99 37.5t-35 103.5q0 55 22.5 111.5t62.5 96.5q59 59 139 59q68 0 110 -44l-41 -52q-30 30 -75 30q-50 0 -88 -38q-31 -31 -48 -83q42 40 100 40q45 0 76.5 -28.5t31.5 -79.5q0 -61 -44.5 -107t-111.5 -46zM213 363q35 0 58.5 24.5t23.5 57.5
q0 27 -16.5 44t-46.5 17q-36 0 -61 -25q-23 -23 -23 -55q0 -29 17.5 -46t47.5 -17z" />
    <glyph glyph-name="seven.num" horiz-adv-x="400" 
d="M85 309l247 323h-190l19 68h271l-16 -57l-250 -334h-81z" />
    <glyph glyph-name="eight.num" horiz-adv-x="400" 
d="M216 301q-63 0 -105.5 30.5t-42.5 79.5q0 44 29 72t76 37q-52 27 -52 80q0 44 40 77t107 33q60 0 99 -30t39 -76q0 -38 -24.5 -64.5t-65.5 -34.5q59 -29 59 -86q0 -49 -44 -83.5t-115 -34.5zM219 359q37 0 61.5 17.5t24.5 44.5q1 26 -21.5 43t-58.5 17q-38 0 -62.5 -18
t-24.5 -45q0 -26 22.5 -42.5t58.5 -16.5zM261 538q34 0 55.5 16.5t21.5 42.5q0 23 -19 39t-52 16q-34 0 -56 -16.5t-22 -42.5q-1 -24 19 -39.5t53 -15.5z" />
    <glyph glyph-name="nine.num" horiz-adv-x="400" 
d="M185 301q-75 0 -118 50l41 52q36 -36 82 -36q50 0 88 36q29 29 47 83q-40 -42 -100 -42q-45 0 -76.5 29.5t-31.5 80.5q0 61 44 108.5t110 47.5q64 0 100 -38.5t36 -104.5q0 -55 -21.5 -111t-60.5 -95q-58 -60 -140 -60zM251 502q37 0 61 24q23 25 23 58q0 29 -18 47
t-47 18q-36 -1 -59 -26.5t-23 -59.5q0 -28 17 -44.5t46 -16.5z" />
    <glyph glyph-name="zero.den" horiz-adv-x="400" 
d="M326 262q0 -61 -22.5 -120t-62.5 -99q-53 -53 -119 -53q-59 0 -95 36.5t-36 100.5q0 61 23 120t63 99q53 53 119 53q58 0 94 -37t36 -100zM68 131q0 -35 16 -54t44 -19q31 0 57 26q29 29 46.5 80.5t17.5 93.5q0 35 -15.5 54t-43.5 19q-31 0 -57 -26q-29 -29 -47 -81
t-18 -93z" />
    <glyph glyph-name="one.den" horiz-adv-x="325" 
d="M57 0l84 314l-87 -29l-5 63l130 46h55l-105 -394h-72z" />
    <glyph glyph-name="one.den_alt" horiz-adv-x="400" 
d="M-18 0l17 63h105l67 251l-102 -35l-6 64l146 51h55l-88 -331h98l-17 -63h-275z" />
    <glyph glyph-name="two.den" horiz-adv-x="400" 
d="M-38 0l17 62l205 148q56 40 56 75q0 21 -15.5 34t-41.5 13q-49 0 -101 -52l-45 47q64 72 149 72q59 0 94.5 -29.5t35.5 -77.5q0 -36 -20.5 -66t-75.5 -66l-139 -96h185l-17 -64h-287z" />
    <glyph glyph-name="three.den" horiz-adv-x="400" 
d="M120 -10q-98 0 -146 66l49 47q42 -47 97 -47q36 0 61 18.5t25 45.5q0 53 -84 53h-24l-8 44l139 106h-167l18 66h264l-16 -56l-148 -110q101 -14 101 -96q0 -59 -46.5 -98t-114.5 -39z" />
    <glyph glyph-name="four.den" horiz-adv-x="400" 
d="M147 -1l23 85h-189l10 69l251 242h79l-68 -252h53l-16 -59h-53l-23 -85h-67zM58 142h128l45 168z" />
    <glyph glyph-name="five.den" horiz-adv-x="400" 
d="M121 -10q-46 0 -87 19t-63 49l50 46q44 -47 101 -47q40 0 65.5 20t25.5 51q0 25 -20 40.5t-54 15.5q-33 0 -65 -16l-44 32l65 189h235l-17 -67h-174l-31 -89q23 10 57 10q57 0 91.5 -30t34.5 -81q0 -59 -47 -100.5t-123 -41.5z" />
    <glyph glyph-name="six.den" horiz-adv-x="400" 
d="M126 -10q-64 0 -99 38t-35 104q0 54 22.5 111t62.5 97q61 59 139 59q69 0 109 -44l-40 -53q-31 31 -75 31q-52 0 -89 -39q-33 -34 -47 -82q40 40 99 40q45 0 77 -29t32 -79q0 -61 -45 -107.5t-111 -46.5zM129 51q34 0 58 25t24 57q0 28 -17 45t-46 17q-36 0 -61 -25
q-23 -23 -23 -56q0 -29 17.5 -46t47.5 -17z" />
    <glyph glyph-name="seven.den" horiz-adv-x="400" 
d="M2 -2l246 322h-189l18 69h272l-16 -57l-251 -334h-80z" />
    <glyph glyph-name="eight.den" horiz-adv-x="400" 
d="M133 -10q-63 0 -105.5 30.5t-42.5 78.5q0 44 28.5 72t75.5 38q-51 27 -51 79q0 45 40 78t107 33q60 0 99 -30t39 -76q0 -39 -24.5 -65.5t-66.5 -34.5q60 -27 60 -85q0 -49 -44 -83.5t-115 -34.5zM136 48q37 0 61.5 17.5t24.5 44.5q1 26 -21.5 42.5t-59.5 16.5
t-61.5 -17.5t-25.5 -44.5q0 -26 23 -42.5t59 -16.5zM178 227q34 0 55.5 16t21.5 42q0 24 -19.5 40t-52.5 16t-55.5 -16.5t-22.5 -42.5q0 -24 20 -39.5t53 -15.5z" />
    <glyph glyph-name="nine.den" horiz-adv-x="400" 
d="M102 -10q-74 0 -117 50l40 52q36 -36 83 -36q51 0 87 36q32 32 47 83q-35 -42 -99 -42q-45 0 -77 29t-32 81q0 61 44 108.5t110 47.5q65 0 100.5 -38.5t35.5 -104.5q0 -55 -21.5 -111.5t-59.5 -94.5q-60 -60 -141 -60zM169 190q37 0 60 25q23 23 23 58q0 29 -17.5 47
t-47.5 18q-36 -1 -59 -26.5t-23 -59.5q0 -29 17 -45.5t47 -16.5z" />
    <glyph glyph-name="caron.alt" horiz-adv-x="500" 
d="M294 589l56 190h101v-3l-106 -187h-51z" />
    <glyph glyph-name="acute.cap" horiz-adv-x="500" 
d="M285 758l152 145l107 -48l-153 -97h-106z" />
    <glyph glyph-name="hungarumlaut.cap" horiz-adv-x="500" 
d="M184 758l152 145l104 -48l-154 -97h-102zM363 758l152 145l104 -48l-154 -97h-102z" />
    <glyph glyph-name="grave.cap" horiz-adv-x="500" 
d="M387 758l-101 97l112 48l73 -145h-84z" />
    <glyph glyph-name="circumflex.cap" horiz-adv-x="500" 
d="M206 758l157 135h114l85 -135h-94l-61 58l-93 -58h-108z" />
    <glyph glyph-name="caron.cap" horiz-adv-x="500" 
d="M598 893l-156 -135h-115l-84 135h93l62 -57l93 57h107z" />
    <glyph glyph-name="breve.cap" horiz-adv-x="500" 
d="M384 756q-73 0 -110.5 35.5t-26.5 98.5h80q5 -50 75 -50q67 0 99 50h92q-23 -64 -79 -99t-130 -35z" />
    <glyph glyph-name="tilde.cap" horiz-adv-x="500" 
d="M263 748l-67 23q28 63 57 92t72 29q28 0 83 -21q42 -18 58 -18q20 0 34 11t30 37l67 -22q-28 -63 -57 -92t-72 -29q-28 0 -83 21q-42 18 -58 18q-20 0 -34 -11.5t-30 -37.5z" />
    <glyph glyph-name="macron.cap" horiz-adv-x="500" 
d="M208 769l24 90h359l-24 -90h-359z" />
    <glyph glyph-name="dieresis.cap" horiz-adv-x="500" 
d="M220 758l31 112h124l-31 -112h-124zM425 758l31 112h124l-31 -112h-124z" />
    <glyph glyph-name="dotaccent.cap" horiz-adv-x="500" 
d="M320 758l31 112h128l-31 -112h-128z" />
    <glyph glyph-name="ring.cap" horiz-adv-x="500" 
d="M311 967q46 0 76.5 -27t30.5 -66q0 -50 -36.5 -84.5t-95.5 -34.5q-46 0 -77 27t-31 66q0 50 37 84.5t96 34.5zM290 802q31 0 52.5 20.5t21.5 46.5q0 23 -16 37t-41 14q-32 0 -53 -20t-21 -47q0 -23 15.5 -37t41.5 -14z" />
    </font>
</defs>
</svg>
